A Star Is Born (2018) 720p H264 italian english Ac3-5 1-MIRCrew


0

0
seeders: 151 leechers: 60
Added 1 year ago in Movies - Highres Movies
Downloaded 15 times.
A Star Is Born (2018) 720p H264 italian english Ac3-5 1-MIRCrew
  • Release date: 5 Oct 2018
  • Release year: 2018
  • Runtime: 136 mintues
  • Country: USA
  • Budget: $36,000,000
Plot:
Seasoned musician Jackson Maine (Bradley Cooper) discovers-and falls in love with-struggling artist Ally (Gaga). She has just about given up on her dream to make it big as a singer - until Jack coaxes her into the spotlight. But even as Ally's career takes off, the personal side of their relationship is breaking down, as Jack fights an ongoing battle with his own internal demons.

Available in versions:
WEB-DL WEBRip BDRip Xvid x264 x265 720p 1080p 2160p Unknown

Files

A Star is Born (2018).720p.ita.eng.Ac3-5.1-MIRCrew.mkv (2.61 GB)
A Star is Born (2018).720p.ita.eng.Ac3-5.1-MIRCrew.mkv 2.61 GB

Description

A Star Is Born (2018).720p.H264.italian.english.Ac3-5.1-MIRCrew


NO FOUND ONLY ORIGINAL RELEASE



My release is always in double track audio italian and Original audio
for select it use VLC or dvd player home
not use wmp

A Star Is Born (2018)

Quality MIRCrew on HD 720p da  2,6 gb







Paese di produzione Stati Uniti d'America
Anno 2018
Durata 135 min
Genere drammatico, musicale, sentimentale
Regia Bradley Cooper
Soggetto È nata una stella di Robert Carson, William A. Wellman
Sceneggiatura Bradley Cooper, Will Fetters, Eric



   Lady Gaga: Ally Campana
   Bradley Cooper: Jackson Maine
   Sam Elliott: Bobby Maine
   Dave Chappelle: George "Noodles" Stone
   Andrew Dice Clay: Lorenzo Campana
   Anthony Ramos: Ramon
   Bonnie Somerville: Sally Cummings
   Rafi Gavron: Rez
   Michael Harney: Wolfie



Jackson Maine è una star della musica rock, che si esibisce tutte le sere in città diverse per platee di fan urlanti. Il cantautore ha avuto un passato turbolento: il padre lo ha avuto all'età di 63 anni e la madre ne aveva a malapena 18. Come lui, il padre era un alcolizzato e molte volte Jack soffriva a causa della sua assenza. Inoltre, fin da quando era piccolo, Jack soffre di una malattia che lo tormenta: l'acufene.



Seasoned musician Jackson Maine (Bradley Cooper) discovers-and falls in love with-struggling artist Ally (Gaga). She has just about given up on her dream to make it big as a singer - until Jack coaxes her into the spotlight.





http://oi67.tinypic.com/9zr19t.jpg



General
Unique ID                                : 171207292257323617727471544568874434807 (0x80CD5338CF0E2EAE9E3E764D732280F7)
Complete name                            : C:\Users\robby\Desktop\A Star is Born (2018).720p.ita.eng.Ac3-5.1-MIRCrew.mkv
Format                                   : Matroska
Format version                           : Version 2
File size                                : 2.61 GiB
Duration                                 : 2h 15mn
Overall bit rate                         : 2 754 Kbps
Movie name                               : MIRCrew
Encoded date                             : UTC 2019-01-25T14:56:39Z
Writing application                      : mkvmerge v5.4.0 ('Piper') built on Mar 10 2012 13:34:39
Writing library                          : Lavf55.12.0
DURATION                                 : 02:15:43.712000000
NUMBER_OF_FRAMES                         : 254491
NUMBER_OF_BYTES                          : 390898176
_STATISTICS_WRITING_APP                  : mkvmerge v26.0.0 ('In The Game') 64-bit
_STATISTICS_WRITING_DATE_UTC             : 2019-01-25 15:46:30
_STATISTICS_TAGS                         : BPS DURATION NUMBER_OF_FRAMES NUMBER_OF_BYTES

Video
ID                                       : 1
Format                                   : AVC
Format/Info                              : Advanced Video Codec
Format profile                           : [email protected]
Format settings, CABAC                   : Yes
Format settings, ReFrames                : 4 frames
Codec ID                                 : V_MPEG4/ISO/AVC
Duration                                 : 2h 15mn
Bit rate                                 : 2 000 Kbps
Width                                    : 1 280 pixels
Height                                   : 528 pixels
Display aspect ratio                     : 2.40:1
Frame rate                               : 23.976 fps
Color space                              : YUV
Chroma subsampling                       : 4:2:0
Bit depth                                : 8 bits
Scan type                                : Progressive
Bits/(Pixel*Frame)                       : 0.123
Stream size                              : 1.83 GiB (70%)
Title                                    : MIRCrew
Writing library                          : x264 core 142 r2479 dd79a61
Encoding settings                        : cabac=1 / ref=1 / deblock=1:-1:-1 / analyse=0x1:0x111 / me=hex / subme=2 / psy=1 / psy_rd=1.00:0.15 / mixed_ref=0 / me_range=16 / chroma_me=1 / trellis=0 / 8x8dct=0 / cqm=0 / deadzone=21,11 / fast_pskip=1 / chroma_qp_offset=0 / threads=6 / lookahead_threads=2 / sliced_threads=0 / nr=0 / decimate=1 / interlaced=0 / bluray_compat=0 / constrained_intra=0 / bframes=3 / b_pyramid=2 / b_adapt=1 / b_bias=0 / direct=1 / weightb=1 / open_gop=0 / weightp=1 / keyint=240 / keyint_min=24 / scenecut=40 / intra_refresh=0 / rc_lookahead=10 / rc=abr / mbtree=1 / bitrate=2000 / ratetol=1.0 / qcomp=0.60 / qpmin=0 / qpmax=69 / qpstep=4 / vbv_maxrate=50000 / vbv_bufsize=62500 / nal_hrd=none / filler=0 / ip_ratio=1.40 / aq=1:1.00
Language                                 : Italian
Default                                  : Yes
Forced                                   : No
DURATION                                 : 02:15:43.719000000
NUMBER_OF_FRAMES                         : 195254
NUMBER_OF_BYTES                          : 2019374825
_STATISTICS_WRITING_APP                  : mkvmerge v26.0.0 ('In The Game') 64-bit
_STATISTICS_WRITING_DATE_UTC             : 2019-01-25 15:46:30
_STATISTICS_TAGS                         : BPS DURATION NUMBER_OF_FRAMES NUMBER_OF_BYTES
Color primaries                          : BT.709-5, BT.1361, IEC 61966-2-4, SMPTE RP177
Transfer characteristics                 : BT.709-5, BT.1361
Matrix coefficients                      : BT.709-5, BT.1361, IEC 61966-2-4 709, SMPTE RP177

Audio #1
ID                                       : 2
Format                                   : AC-3
Format/Info                              : Audio Coding 3
Mode extension                           : CM (complete main)
Codec ID                                 : A_AC3
Duration                                 : 2h 15mn
Bit rate mode                            : Constant
Bit rate                                 : 384 Kbps
Channel(s)                               : 6 channels
Channel positions                        : Front: L C R, Side: L R, LFE
Sampling rate                            : 48.0 KHz
Bit depth                                : 16 bits
Compression mode                         : Lossy
Delay relative to video                  : 1s 433ms
Stream size                              : 373 MiB (14%)
Title                                    : Ita Ac3 5.1
Language                                 : Italian
Default                                  : Yes
Forced                                   : No
DURATION                                 : 02:15:43.776000000
NUMBER_OF_FRAMES                         : 254493
NUMBER_OF_BYTES                          : 390901248
_STATISTICS_WRITING_APP                  : mkvmerge v26.0.0 ('In The Game') 64-bit
_STATISTICS_WRITING_DATE_UTC             : 2019-01-25 15:46:30
_STATISTICS_TAGS                         : BPS DURATION NUMBER_OF_FRAMES NUMBER_OF_BYTES

Audio #2
ID                                       : 3
Format                                   : AC-3
Format/Info                              : Audio Coding 3
Mode extension                           : CM (complete main)
Codec ID                                 : A_AC3
Duration                                 : 2h 15mn
Bit rate mode                            : Constant
Bit rate                                 : 384 Kbps
Channel(s)                               : 6 channels
Channel positions                        : Front: L C R, Side: L R, LFE
Sampling rate                            : 48.0 KHz
Bit depth                                : 16 bits
Compression mode                         : Lossy
Delay relative to video                  : -5ms
Stream size                              : 373 MiB (14%)
Title                                    : Eng Ac3 5.1
Language                                 : English
Default                                  : No
Forced                                   : No

Menu
00:00:00.000                             : :1
00:11:08.125                             : :2
00:20:26.099                             : :3
00:31:43.109                             : :4
00:42:46.147                             : :5
00:53:11.188                             : :6
01:04:31.200                             : :7
01:16:51.190                             : :8
01:29:29.113                             : :9
01:43:45.135                             : :10
01:56:41.160                             : :11
02:10:05.130                             : :12

Related Torrents

Tracker name
udp://tracker.coppersurfer.tk:80/announce
udp://tracker.pirateparty.gr:6969/announce
udp://tracker.internetwarriors.net:1337/announce
udp://tracker.opentrackr.org:1337/announce
udp://9.rarbg.to:2730/announce
udp://9.rarbg.to:2740/announce
udp://9.rarbg.to:2720/announce
udp://9.rarbg.to:2710/announce
udp://9.rarbg.me:2740/announce
udp://9.rarbg.me:2770/announce
udp://9.rarbg.me:2710/announce
udp://tracker.torrent.eu.org:451
udp://tracker.port443.xyz:6969/announce
udp://IPv6.open-internet.nl:6969/announce
udp://p4p.arenabg.ch:1337/announce
udp://denis.stalker.upeer.me:1337/announce
udp://shadowshq.yi.org:6969/announce
udp://eddie4.nl:6969/announce
udp://tracker.mg64.net:6969/announce
udp://inferno.demonoid.pw:3418/announce
udp://tracker.cyberia.is:6969/announce
udp://tracker.zer0day.to:1337/announce
udp://asnet.pw:2710/announce
udp://ipv6.tracker.harry.lu:80/announce
udp://glotorrents.pw:6969/announce
udp://tracker.torrent.eu.org:451/announce
udp://open.demonii.si:1337/announce
udp://tracker.qt.is:6969/announce
udp://9.rarbg.to:2770/announce
udp://9.rarbg.me:2730/announce
udp://tracker.ds.is:6969/announce
udp://exodus.desync.com:6969/announce
udp://tracker.tiny-vps.com:6969/announce
udp://tracker.justseed.it:1337/announce
udp://tracker.coppersurfer.tk:6969/announce
udp://thetracker.org:80/announce
udp://tracker.vanitycore.co:6969/announce
udp://tracker.cypherpunks.ru:6969/announce
udp://ipv4.tracker.harry.lu:80/announce
udp://tracker.open-internet.nl:6969/announce
udp://public.popcorn-tracker.org:6969/announce
udp://tracker.0o.is:6969/announce
udp://tracker.trackerfix.com:80/announce
udp://bt.xxx-tracker.com:2710/announce
udp://open.stealth.si:80/announce
http://share.camoe.cn:8080/announce
https://open.acgnxtracker.com:443/announce
http://tracker.tfile.co:80/announce
http://retracker.spb.ru:80/announce
http://open.acgnxtracker.com/announce
http://bt.acg.gg:1578/announce
http://tracker3.itzmx.com:8080/announce
udp://tracker.acg.gg:2710/announce
Torrent hash: 84D079BA8658B4408BF2B354C01FA52102CE3D9F

0 Comment

Login to post comments