Aravinda Sametha Veera Raghava (2018) Hindi Dubbed HDRip x264 AAC 550mb [MechBoy


0

0
seeders: 2 leechers: 42 updated: 1 week ago
Added 1 week ago in Movies - Dubbed Movies
Downloaded 59 times.
Aravinda Sametha Veera Raghava (2018) Hindi Dubbed HDRip x264 AAC 550mb [MechBoy
  • Language: Hindi
  • Release date: 10 Oct 2018
  • Release year: 2018
  • Runtime: 162 mintues
  • Country: India
Plot:
Two villages in Rayalaseema, Nallagudi and Kommadi are engaged in a feud for decades lead by Basi Reddy and Narapa Reddy respectively. The son of Narapa Reddy, Veera Raghava Reddy, returns from London after completing his education. Basi Reddy attacks and kills Narapa Reddy on their way home. Raghava instinctively takes a sword and kills his opponents. After talking to his grandmother about the feud, he realizes that violence became a way of life for the people in these villages and he leaves for Hyderabad seeking a solution to the feud. Raghava meets Aravindha in Hyderabad and falls in love with her. She strongly believes in solving problems without bloodshed and sets him on a path of self-discovery. He decides to return to his village and put an end to the feud.

Available in versions:
WEB-DL x264 x265 480p 720p 1080p Unknown

Files

For More ViSiT Us.txt (541.3 MB)
For More ViSiT Us.txt 204 B
Aravinda Sametha Veera Raghava (2018) Hindi Dubbed HDRip x264 AAC 550mb [MechBoy].mkv 541.3 MB

Description





Aravinda Sametha Veera Raghava (2018) Hindi Dubbed HDRip x264 AAC 550mb [MechBoy]







..:: MEDIA INFO ::..


Format : Matroska
Format version : Version 4 / Version 2
File size : 541 MiB
Duration : 2 h 41 min
Overall bit rate : 469 kb/s
Encoded date : UTC 2015-04-23 18:48:21
Writing application : mkvmerge v42.0.0 ('Overtime') 64-bit
Writing library : libebml v1.3.10 + libmatroska v1.5.2

Video
ID : 1
Format : AVC
Format/Info : Advanced Video Codec
Format profile : [email protected]
Format settings, CABAC : Yes
Format settings, RefFrames : 5 frames
Codec ID : V_MPEG4/ISO/AVC
Duration : 2 h 41 min
Bit rate : 411 kb/s
Width : 720 pixels
Height : 304 pixels
Display aspect ratio : 2.40:1
Original display aspect ratio : 2.40:1
Frame rate mode : Constant
Frame rate : 25.000 FPS
Color space : YUV
Chroma subsampling : 4:2:0
Bit depth : 8 bits
Scan type : Progressive
Bits/(Pixel*Frame) : 0.075
Stream size : 474 MiB (88%)
Default : Yes
Forced : No

Audio
ID : 2
Format : AAC
Format/Info : Advanced Audio Codec
Format profile : HE-AAC / LC
Codec ID : A_AAC
Duration : 2 h 41 min
Bit rate : 56.0 kb/s
Channel(s) : 2 channels
Channel positions : Front: L R
Sampling rate : 48.0 kHz / 24.0 kHz
Frame rate : 23.438 FPS (1024 SPF)
Compression mode : Lossy
Delay relative to video : -105 ms
Stream size : 64.7 MiB (12%)
Language : Hindi
Default : Yes
Forced : No






..:: SCREENSHOTS ::..












Related Torrents

Tracker name
udp://tracker.coppersurfer.tk:6969/announce
udp://tracker.leechers-paradise.org:6969/announce
udp://tracker.cyberia.is:6969/announce
udp://9.rarbg.me:2780/announce
udp://p4p.arenabg.com:1337/announce
udp://explodie.org:6969/announce
udp://tracker.opentrackr.org:1337/announce
udp://tracker.tiny-vps.com:6969/announce
udp://exodus.desync.com:6969/announce
udp://tracker.torrent.eu.org:451/announce
udp://tracker.moeking.me:6969/announce
udp://ipv4.tracker.harry.lu:80/announce
udp://open.stealth.si:80/announce
udp://9.rarbg.to:2710/announce
udp://tracker.zer0day.to:1337/announce
udp://tracker.leechers-paradise.org:6969/announce
udp://coppersurfer.tk:6969/announce
Torrent hash: 478A997225F3512C2122B3EB963A93FD128FBF03

0 Comment

Login to post comments