Attacco al Potere 2 2016 UHD BluRay 2160p DTS iTA ENG Subs x265-BJL mkv


0

0
seeders: 4 leechers: 16 updated: 3 days ago
Added 3 days ago in Movies - UltraHD
Downloaded 1 time.
Attacco al Potere 2 2016 UHD BluRay 2160p DTS iTA ENG Subs x265-BJL mkv
Plot:
After the British Prime Minister has passed away under mysterious circumstances, all leaders of the Western world must attend his funeral. But what starts out as the most protected event on earth, turns into a deadly plot to kill the world's most powerful leaders and unleash a terrifying vision of the future. The President of the United States, his formidable secret service head and a British MI-6 agent who trusts no one are the only people that have any hope of stopping it.

Available in versions:
DVD-R BDRip x264 x265 720p 1080p 2160p Unknown

Files

Attacco.al.Potere.2.2016.UHD.BluRay.2160p.DTS.iTA.ENG.Subs.x265-BJL.mkv (10.3 GB)
Attacco.al.Potere.2.2016.UHD.BluRay.2160p.DTS.iTA.ENG.Subs.x265-BJL.mkv 10.3 GB

Description



DATI - TRAMA

Titolo Originale: London Has Fallen
Anno: 2016
Genere: Action, Thriller
Durata: 99
Nazione: United Kingdom, Bulgaria, United States
Regista: Babak Najafi
Sceneggiatura: Creighton Rothenberger, Katrin Benedikt, Creighton Rothenberger
Produzione: Millennium Films, G-BASE, Gramercy Pictures (I), LHF Film, Nu Boyana Film Studios
Cast: Alon Aboutboul, Waleed Zuaiter, Adel Bencherif, Mehdi Dehbi, Shivaani Ghai, Martin Petrushev, Owen Davis, Gerard Butler, Aaron Eckhart, Michael Wildman, Radha Mitchell, Lucy Newman-Williams, Julian Kostov, Stacy Shane, Penny Downie, Guy Williams, Patrick Kennedy, Colin Salmon, Terry Randall, Angela Bassett


Attacco al potere 2 è un film del 2016 diretto da Babak Najafi, sequel di Attacco al potere - Olympus Has Fallen.Sventato l'attacco terroristico nordcoreano ai danni del Presidente degli Stati Uniti Benjamin Asher (Aaron Eckhart), l'agente Mike Banning (Gerard Butler) è stato reintegrato nella scorta personale del presidente e vive un momento di estrema serenità personale, aspettando con ansia la nascita del suo primo figlio.La morte del Primo Ministro britannico James Wilson richiama l'attenzione politica mondiale e i membri del G8 sono invitati a presenziare ai funerali nella Cattedrale di St.Paul a Londra.Banning scorta personalmente Asher oltre oceano, ignaro che un gruppo di terroristi yemeniti intende sfruttare l'evento per eliminare i capi di stato più influenti al mondo. Poco dopo l'inizio della funzione, infatti, alcuni uomini travestiti da guardie aprono il fuoco sulla folla. Mentre i terroristi, capeggiati dal signore della guerra Aamir Barkawi (Alon Abutbul) e dal figlio Kamran (Waleed Zuaiter), eliminano uno ad uno i rappresentati del G8, Banning riesce a salvare Asher raggiungendo l'elicottero presidenziale. Grazie al sostegno del vicepresidente Trumbull (Morgan Freeman) e dell'agente inglese Jacqueline Marshall (Charlotte Riley), i due superano incolumi l'attacco aereo e si rifugiano in una casa sicura mentre Scotland Yard cerca di correre ai ripari. Sebbene colpita nel cuore, Londra si ribella ai terroristi e Banning metterà in campo tutte le sue conoscenze per salvare il suo presidente e tornare a casa da suo figlio...

IMMAGINI





REPORT
General
Unique ID : 261238238251064108372402069703731394128 (0xC488A791AE64FE8A96E532504AAB3650)
Complete name : Attacco.al.Potere.2.2016.UHD.BluRay.2160p.DTS.iTA.ENG.Subs.x265-BJL.mkv
Format : Matroska
Format version : Version 4
File size : 10.3 GiB
Duration : 1 h 39 min
Overall bit rate : 14.8 Mb/s
Encoded by : BJL
Encoded date : UTC 2020-10-15 12:13:59
Writing application : mkvmerge v51.0.0 ('I Wish') 64-bit
Writing library : libebml v1.4.0 + libmatroska v1.6.2
Cover : Yes
Attachments : cover.png
DATA_RILASCIO : 2016
IMDb : tt3300542
ORIGINAL_MEDIA : BluRay UHD + BluRay
TITOLO : Attacco al Potere 2 (Najafi, 2016)
TRAMA : Attacco al potere 2 e' un film del 2016 diretto da Babak Najafi, sequel di Attacco al potere - Olympus Has Fallen. Sventato l'attacco terroristico nordcoreano ai danni del Presidente degli Stati Uniti Benjamin Asher (Aaron Eckhart), l'agente Mike Banning (Gerard Butler) e' stato reintegrato nella scorta personale del presidente e vive un momento di estrema serenita' personale, aspettando con ansia la nascita del suo primo figlio. La morte del Primo Ministro britannico James Wilson richiama l'attenzione politica mondiale e i membri del G8 sono invitati a presenziare ai funerali nella Cattedrale di St.Paul a Londra. Banning scorta personalmente Asher oltre oceano, ignaro che un gruppo di terroristi yemeniti intende sfruttare l'evento per eliminare i capi di stato piu' influenti al mondo. Poco dopo l'inizio della funzione, infatti, alcuni uomini travestiti da guardie aprono il fuoco sulla folla. Mentre i terroristi, capeggiati dal signore della guerra Aamir Barkawi (Alon Abutbul) e dal figlio Kamran (Waleed Zuaiter), eliminano uno ad uno i rappresentati del G8, Banning riesce a salvare Asher raggiungendo l'elicottero presidenziale. Grazie al sostegno del vicepresidente Trumbull (Morgan Freeman) e dell'agente inglese Jacqueline Marshall (Charlotte Riley), i due superano incolumi l'attacco aereo e si rifugiano in una casa sicura mentre Scotland Yard cerca di correre ai ripari. Sebbene colpita nel cuore, Londra si ribella ai terroristi e Banning mettera' in campo tutte le sue conoscenze per salvare il suo presidente e tornare a casa da suo figlio...

Video
ID : 1
Format : HEVC
Format/Info : High Efficiency Video Coding
Format profile : Main [email protected]@High
HDR format : SMPTE ST 2086, HDR10 compatible
Codec ID : V_MPEGH/ISO/HEVC
Duration : 1 h 39 min
Bit rate : 11.8 Mb/s
Width : 3 840 pixels
Height : 1 608 pixels
Display aspect ratio : 2.40:1
Frame rate mode : Constant
Frame rate : 24.000 FPS
Color space : YUV
Chroma subsampling : 4:2:0 (Type 2)
Bit depth : 10 bits
Bits/(Pixel*Frame) : 0.080
Stream size : 8.16 GiB (79%)
Writing library : x265 3.4+26-ga82c6c7a7:[Windows][GCC 10.2.1][64 bit] 10bit
Encoding settings : cpuid=1049583 / frame-threads=3 / numa-pools=12 / wpp / no-pmode / no-pme / no-psnr / no-ssim / log-level=2 / input-csp=1 / input-res=3840x1608 / interlace=0 / total-frames=142734 / level-idc=51 / high-tier=1 / uhd-bd=0 / ref=4 / no-allow-non-conformance / repeat-headers / annexb / no-aud / hrd / info / hash=0 / no-temporal-layers / open-gop / min-keyint=24 / keyint=250 / gop-lookahead=0 / bframes=8 / b-adapt=2 / b-pyramid / bframe-bias=0 / rc-lookahead=30 / lookahead-slices=4 / scenecut=40 / hist-scenecut=0 / radl=0 / no-splice / no-intra-refresh / ctu=64 / min-cu-size=8 / rect / no-amp / max-tu-size=32 / tu-inter-depth=1 / tu-intra-depth=1 / limit-tu=0 / rdoq-level=2 / dynamic-rd=0.00 / no-ssim-rd / signhide / no-tskip / nr-intra=0 / nr-inter=0 / no-constrained-intra / no-strong-intra-smoothing / max-merge=3 / limit-refs=3 / limit-modes / me=3 / subme=4 / merange=57 / temporal-mvp / no-frame-dup / no-hme / weightp / weightb / no-analyze-src-pics / deblock=-3:-3 / no-sao / no-sao-non-deblock / rd=4 / selective-sao=0 / no-early-skip / rskip / no-fast-intra / no-tskip-fast / no-cu-lossless / no-b-intra / no-splitrd-skip / rdpenalty=0 / psy-rd=2.00 / psy-rdoq=1.00 / no-rd-refine / no-lossless / cbqpoffs=0 / crqpoffs=0 / rc=crf / crf=14.9 / qcomp=0.60 / qpstep=4 / stats-write=0 / stats-read=0 / vbv-maxrate=160000 / vbv-bufsize=160000 / vbv-init=0.9 / min-vbv-fullness=50.0 / max-vbv-fullness=80.0 / crf-max=0.0 / crf-min=0.0 / ipratio=1.40 / pbratio=1.30 / aq-mode=3 / aq-strength=0.80 / cutree / zone-count=1 / zones: / start-frame=132294 / end-frame=142734 / qp=23 / no-strict-cbr / qg-size=32 / no-rc-grain / qpmax=69 / qpmin=0 / no-const-vbv / sar=1 / overscan=0 / videoformat=5 / range=0 / colorprim=9 / transfer=16 / colormatrix=9 / chromaloc=1 / chromaloc-top=2 / chromaloc-bottom=2 / display-window=0 / master-display=G(8500,39850)B(6550,2300)R(35400,14600)WP(15635,16450)L(10000000,1) / cll=906,824 / min-luma=0 / max-luma=1023 / log2-max-poc-lsb=8 / vui-timing-info / vui-hrd-info / slices=1 / no-opt-qp-pps / no-opt-ref-list-length-pps / no-multi-pass-opt-rps / scenecut-bias=0.05 / hist-threshold=0.03 / no-opt-cu-delta-qp / no-aq-motion / hdr10 / hdr10-opt / no-dhdr10-opt / no-idr-recovery-sei / analysis-reuse-level=0 / analysis-save-reuse-level=0 / analysis-load-reuse-level=0 / scale-factor=0 / refine-intra=0 / refine-inter=0 / refine-mv=1 / refine-ctu-distortion=0 / no-limit-sao / ctu-info=0 / no-lowpass-dct / refine-analysis-type=0 / copy-pic=1 / max-ausize-factor=1.0 / no-dynamic-refine / no-single-sei / no-hevc-aq / no-svt / no-field / qp-adaptation-range=1.00 / no-scenecut-aware-qpconformance-window-offsets / right=0 / bottom=0 / decoder-max-rate=0 / no-vbv-live-multi-pass
Default : Yes
Forced : No
Color range : Limited
Color primaries : BT.2020
Transfer characteristics : PQ
Matrix coefficients : BT.2020 non-constant
Mastering display color pri : BT.2020
Mastering display luminance : min: 0.0001 cd/m2, max: 1000 cd/m2
Maximum Content Light Level : 906 cd/m2
Maximum Frame-Average Light : 824 cd/m2

Audio #1
ID : 2
Format : DTS
Format/Info : Digital Theater Systems
Codec ID : A_DTS
Duration : 1 h 39 min
Bit rate mode : Constant
Bit rate : 1 509 kb/s
Channel(s) : 6 channels
Channel layout : C L R Ls Rs LFE
Sampling rate : 48.0 kHz
Frame rate : 93.750 FPS (512 SPF)
Bit depth : 24 bits
Compression mode : Lossy
Stream size : 1.05 GiB (10%)
Title : Italiano DTS 5.1
Language : Italian
Default : Yes
Forced : No

Audio #2
ID : 3
Format : DTS
Format/Info : Digital Theater Systems
Codec ID : A_DTS
Duration : 1 h 39 min
Bit rate mode : Constant
Bit rate : 1 509 kb/s
Channel(s) : 6 channels
Channel layout : C L R Ls Rs LFE
Sampling rate : 48.0 kHz
Frame rate : 93.750 FPS (512 SPF)
Bit depth : 24 bits
Compression mode : Lossy
Stream size : 1.05 GiB (10%)
Title : English DTS 5.1
Language : English
Default : No
Forced : No

Text #1
ID : 4
Format : UTF-8
Codec ID : S_TEXT/UTF8
Codec ID/Info : UTF-8 Plain Text
Duration : 1 h 30 min
Bit rate : 2 b/s
Count of elements : 41
Stream size : 1.41 KiB (0%)
Title : Italiano Forced
Language : Italian
Default : Yes
Forced : No

Text #2
ID : 5
Format : UTF-8
Codec ID : S_TEXT/UTF8
Codec ID/Info : UTF-8 Plain Text
Duration : 1 h 31 min
Bit rate : 55 b/s
Count of elements : 975
Stream size : 37.1 KiB (0%)
Title : Italiano Normal
Language : Italian
Default : No
Forced : No

Text #3
ID : 6
Format : PGS
Codec ID : S_HDMV/PGS
Codec ID/Info : Picture based subtitle format used on BDs/HD-DVDs
Duration : 1 h 16 min
Bit rate : 359 b/s
Count of elements : 28
Stream size : 202 KiB (0%)
Title : English Forced
Language : English
Default : No
Forced : No

Text #4
ID : 7
Format : PGS
Codec ID : S_HDMV/PGS
Codec ID/Info : Picture based subtitle format used on BDs/HD-DVDs
Duration : 1 h 38 min
Bit rate : 35.5 kb/s
Count of elements : 3070
Stream size : 24.9 MiB (0%)
Title : English SDH
Language : English
Default : No
Forced : No

Menu
00:00:00.000 : :Capitolo 01
00:00:16.583 : :Capitolo 02
00:10:27.875 : :Capitolo 03
00:22:54.500 : :Capitolo 04
00:33:07.292 : :Capitolo 05
00:42:48.292 : :Capitolo 06
00:53:39.250 : :Capitolo 07
01:05:11.458 : :Capitolo 08
01:13:16.417 : :Capitolo 09
01:23:56.417 : :Capitolo 10
01:31:52.250 : :Capitolo 11


GOOD DOWNLOAD

Related Torrents

Tracker name
udp://tracker.coppersurfer.tk:6969/announce
udp://tracker.opentrackr.org:1337/announce
udp://tracker.leechers-paradise.org:6969/announce
udp://tracker.zer0day.to:1337/announce
udp://eddie4.nl:6969/announce
udp://9.rarbg.me:2790/announce
udp://9.rarbg.to:2730/announce
udp://9.rarbg.com:2710/announce
udp://tracker.pirateparty.gr:6969/announce
udp://p4p.arenabg.com:1337/announceudp://tracker.coppersurfer.tk:6969/announce
udp://p4p.arenabg.com:1337/announce
udp://tracker.zer0day.to:1337/announce
udp://tracker.leechers-paradise.org:6969/announce
udp://coppersurfer.tk:6969/announce
Torrent hash: 17156298EB815F0E9389390F261C16CA3A5BD7E5

0 Comment

Login to post comments