Attraction 2 Invasion (2020) ITA-ENG Ac3 5 1 BDRip 1080p H264 [ArMor]


0

0
seeders: 3 leechers: 4 updated: 3 days ago
Added 3 days ago in Movies - Highres Movies
Downloaded 7 times.
Attraction 2 Invasion (2020) ITA-ENG Ac3 5 1 BDRip 1080p H264 [ArMor]
  • Release date: 9 Feb 2020
  • Release year: 2020
  • Runtime: 134 mintues
  • Country: Russia
  • Keywords: alien
Plot:
With the fall of the alien ship Julia's life changed, now three years later mankind is about to experience new encounter.

Available in versions:
WEB-DL BDRip x264 720p 1080p Unknown

Files

Attraction 2 Invasion (2020) ITA-ENG Ac3 5.1 BDRip 1080p H264 [ArMor].mkv (5.5 GB)
Attraction 2 Invasion (2020) ITA-ENG Ac3 5.1 BDRip 1080p H264 [ArMor].mkv 5.5 GB
Attraction.2.Invasion.2020.Bd-2_track4_ita.sup 0 B
Attraction.2.Invasion.2020.Bd-2_track5_ita.sup 11.9 MB
trsq34525524u5y7iu58o6erwert.jpg 149.5 KB

Description







Directed by Fyodor Bondarchuk
Produced by Fyodor Bondarchuk-Dmitriy Rudovskiy-Mikhail Vrubel-Aleksandr Andryushchenko-Anton Zlatopolskiy (ru)-Elena Nelidova-Mikhail Kitaev
Screenplay by Oleg Malovichko-Andrey Zolotarev
Music by Igor Vdovin
Cinematography Vladislav Opelyants
Edited by Aleksandr Andryushchenko-Aleksandr Puzyryov
Production company Art Pictures Studio-Vodorod-Cinema Foundation-Russia 1-National Media Group Studio
Distributed by Columbia Pictures-Sony Pictures Releasing-Walt Disney Studios Sony Pictures Releasing
Release date January 1, 2020 (Russia)
Running time 129 minutes
Country Russia



Irina Starshenbaum
Rinal Mukhametov
Alexander Petrov
Yuri Borisov
Oleg Menshikov
Sergei Garmash



Con la caduta della nave aliena la vita di Julia è cambiata, ora tre anni dopo l'umanità sta per sperimentare un nuovo incontro.



With the fall of the alien ship Julia's life changed, now three years later mankind is about to experience new encounter.












General
Unique ID : 252056307049421513389761531586156419310 (0xBDA04768BB1283DEA321B5BEC4ABD8EE)
Complete name : Attraction 2 Invasion (2020) ITA-ENG Ac3 5.1 BDRip 1080p H264 [ArMor].mkv
Format : Matroska
Format version : Version 4
File size : 5.45 GiB
Duration : 2 h 12 min
Overall bit rate : 5 889 kb/s
Encoded date : UTC 2020-11-21 16:45:54
Writing application : mkvmerge v15.0.0 ('Duel with the Devil') 64-bit
Writing library : libebml v1.3.5 + libmatroska v1.4.5 / Lavf58.29.100

Video
ID : 1
Format : AVC
Format/Info : Advanced Video Codec
Format profile : [email protected]
Format settings : CABAC / 4 Ref Frames
Format settings, CABAC : Yes
Format settings, Reference frames : 4 frames
Codec ID : V_MPEG4/ISO/AVC
Duration : 2 h 12 min
Bit rate : 5 000 kb/s
Width : 1 920 pixels
Height : 716 pixels
Display aspect ratio : 2.682
Frame rate mode : Constant
Frame rate : 24.000 FPS
Color space : YUV
Chroma subsampling : 4:2:0
Bit depth : 8 bits
Scan type : Progressive
Bits/(Pixel*Frame) : 0.152
Stream size : 4.62 GiB (85%)
Writing library : x264 core 157 r2935 545de2f
Encoding settings : cabac=1 / ref=2 / deblock=1:0:0 / analyse=0x1:0x111 / me=hex / subme=6 / psy=1 / psy_rd=1.00:0.00 / mixed_ref=1 / me_range=16 / chroma_me=1 / trellis=1 / 8x8dct=0 / cqm=0 / deadzone=21,11 / fast_pskip=1 / chroma_qp_offset=-2 / threads=18 / lookahead_threads=3 / sliced_threads=0 / nr=0 / decimate=1 / interlaced=0 / bluray_compat=0 / constrained_intra=0 / bframes=3 / b_pyramid=2 / b_adapt=1 / b_bias=0 / direct=1 / weightb=1 / open_gop=0 / weightp=1 / keyint=240 / keyint_min=24 / scenecut=40 / intra_refresh=0 / rc_lookahead=30 / rc=abr / mbtree=1 / bitrate=5000 / ratetol=1.0 / qcomp=0.60 / qpmin=0 / qpmax=69 / qpstep=4 / vbv_maxrate=20000 / vbv_bufsize=25000 / nal_hrd=none / filler=0 / ip_ratio=1.40 / aq=1:1.00
Default : Yes
Forced : No
Color range : Limited
Color primaries : BT.709
Transfer characteristics : BT.709
Matrix coefficients : BT.709

Audio #1
ID : 2
Format : AC-3
Format/Info : Audio Coding 3
Commercial name : Dolby Digital
Codec ID : A_AC3
Duration : 2 h 12 min
Bit rate mode : Constant
Bit rate : 448 kb/s
Channel(s) : 6 channels
Channel layout : L R C LFE Ls Rs
Sampling rate : 48.0 kHz
Frame rate : 31.250 FPS (1536 SPF)
Compression mode : Lossy
Stream size : 425 MiB (8%)
Title : Surround
Language : Italian
Service kind : Complete Main
Default : Yes
Forced : No

Audio #2
ID : 3
Format : AC-3
Format/Info : Audio Coding 3
Commercial name : Dolby Digital
Codec ID : A_AC3
Duration : 2 h 12 min
Bit rate mode : Constant
Bit rate : 448 kb/s
Channel(s) : 6 channels
Channel layout : L R C LFE Ls Rs
Sampling rate : 48.0 kHz
Frame rate : 31.250 FPS (1536 SPF)
Compression mode : Lossy
Stream size : 425 MiB (8%)
Title : Surround
Language : Russian
Service kind : Complete Main
Default : No
Forced : No

Menu
00:00:00.000 : :Chapter 1
00:11:26.708 : :Chapter 2
00:22:04.000 : :Chapter 3
00:33:15.875 : :Chapter 4
00:43:55.083 : :Chapter 5
00:53:35.792 : :Chapter 6
01:06:25.458 : :Chapter 7
01:16:44.917 : :Chapter 8
01:27:09.083 : :Chapter 9
01:38:37.083 : :Chapter 10
01:50:17.333 : :Chapter 11
01:58:32.125 : :Chapter 12





Related Torrents

Tracker name
udp://tracker.coppersurfer.tk:6969/announce
udp://tracker.leechers-paradise.org:6969/announce
udp://9.rarbg.to:2710/announce
udp://exodus.desync.com:6969/announce
udp://tracker.uw0.xyz:6969/announce
udp://open.stealth.si:80/announce
udp://tracker.tiny-vps.com:6969/announce
udp://open.demonii.si:1337/announce
udp://tracker.cyberia.is:6969/announce
udp://tracker.kamigami.org:2710/announce
udp://opentor.org:2710/announce[/fo
udp://opentracker.i2p.rocks:6969/announce
udp://tracker.zerobytes.xyz:1337/announce
udp://aaa.army:8866/announce
udp://tracker.zer0day.to:1337/announce
udp://tracker.leechers-paradise.org:6969/announce
udp://coppersurfer.tk:6969/announce
Torrent hash: EBD8E7823BD9CD4AE31BEB73DC1D1C0C2096C42F

0 Comment

Login to post comments