Ben 10 Alien Swarm 2009 x264 720p Esub BluRay Dual Audio Hindi English Telugu Ta


0

0
seeders: 1 leechers: 17 updated: 1 year ago
Added 1 year ago in Movies - Dubbed Movies
Downloaded 2 times.
Ben 10 Alien Swarm 2009 x264 720p Esub BluRay Dual Audio Hindi English Telugu Ta
  • Language: English
  • Release date: 25 Nov 2009
  • Release year: 2009
  • Runtime: 69 mintues
  • Country: USA
  • Budget: $40,000,000
Plot:
Against his grandfather's orders, Ben Tennyson teams up with the daughter of an old enemy in order to prevent an alien infestation of earth.

Available in versions:
x264 720p 1080p

Files

Ben 10 Alien Swarm 2009 x264 720p Esub BluRay Dual Audio Hindi English Telugu Tamil GOPISAHI.mkv (539.1 MB)
Ben 10 Alien Swarm 2009 x264 720p Esub BluRay Dual Audio Hindi English Telugu Tamil GOPISAHI.mkv 539.1 MB

Description

https://www.gopisahi.xyz/


Ben 10 Alien Swarm 2009 x264 720p Esub BluRay Dual Audio Hindi English Telugu Tamil GOPISAHI


Format : Matroska
Format version : Version 4 / Version 2
File size : 539 MiB
Duration : 1 h 9 min
Overall bit rate : 1 089 kb/s
Movie name : Ben 10 Alien Swarm 2009 GOPISAHI

Video
Format : AVC
Format/Info : Advanced Video Codec
Format profile : [email protected]
Codec ID : V_MPEG4/ISO/AVC
Duration : 1 h 9 min
Bit rate : 699 kb/s
Width : 1 280 pixels
Height : 720 pixels
Display aspect ratio : 16:9
Frame rate mode : Constant
Frame rate : 23.976 (24000/1001) FPS
Color space : YUV
Chroma subsampling : 4:2:0
Bit depth : 8 bits
Scan type : Progressive
Bits/(Pixel*Frame) : 0.032
Stream size : 346 MiB (64%)
Title : GOPISAHI
Writing library : x264 core 157 r2935 545de2f

Audio #1
Format : AAC
Duration : 1 h 9 min
Bit rate : 96.0 kb/s
Channel(s) : 2 channels
Channel positions : Front: L R
Sampling rate : 48.0 kHz
Frame rate : 46.875 FPS (1024 SPF)
Compression mode : Lossy
Delay relative to video : -21 ms
Stream size : 47.8 MiB (9%)
Title : GOPISAHI
Language : Hindi

Audio #2
Format : AAC
Duration : 1 h 9 min
Bit rate : 96.0 kb/s
Channel(s) : 2 channels
Channel positions : Front: L R
Sampling rate : 48.0 kHz
Frame rate : 46.875 FPS (1024 SPF)
Compression mode : Lossy
Delay relative to video : -21 ms
Stream size : 47.8 MiB (9%)
Title : GOPISAHI
Language : English

Audio #3
Format : AAC
Duration : 1 h 9 min
Bit rate : 96.0 kb/s
Channel(s) : 2 channels
Channel positions : Front: L R
Sampling rate : 48.0 kHz
Frame rate : 46.875 FPS (1024 SPF)
Compression mode : Lossy
Delay relative to video : -21 ms
Stream size : 47.7 MiB (9%)
Title : GOPISAHI
Language : Telugu

Audio #4
Format : AAC
Duration : 1 h 9 min
Bit rate : 96.0 kb/s
Channel(s) : 2 channels
Channel positions : Front: L R
Sampling rate : 48.0 kHz
Frame rate : 46.875 FPS (1024 SPF)
Compression mode : Lossy
Delay relative to video : -21 ms
Stream size : 47.8 MiB (9%)
Title : GOPISAHI
Language : Tamil






Related Torrents

Tracker name
udp://tracker.coppersurfer.tk:6969/announce
http://tracker.internetwarriors.net:1337/announce
udp://tracker.opentrackr.org:1337/announce
udp://9.rarbg.to:2710/announce
udp://exodus.desync.com:6969/announce
udp://explodie.org:6969/announce
udp://tracker1.itzmx.com:8080/announce
udp://ipv4.tracker.harry.lu:80/announce
udp://denis.stalker.upeer.me:6969/announce
udp://tracker.torrent.eu.org:451/announce
udp://tracker.tiny-vps.com:6969/announce
udp://open.demonii.si:1337/announce
udp://tracker.port443.xyz:6969/announce
udp://thetracker.org:80/announce
udp://tracker.zer0day.to:1337/announce
udp://tracker.leechers-paradise.org:6969/announce
udp://coppersurfer.tk:6969/announce
http://tracker3.itzmx.com:6961/announce
http://tracker1.itzmx.com:8080/announce
https://bwt.pw/announce.php
Torrent hash: 3D8F9B94EA3FEB1FC049743208E4EE988A973925

0 Comment

Login to post comments