Biancaneve e il Cacciatore (2012) UHDRip 2160p HEVC HDR ITA DTS ENG DTS-X 7 1 Pi


0

0
seeders: 4 leechers: 19 updated: 3 days ago
Added 3 days ago in Movies - UltraHD
Downloaded 2 times.
Biancaneve e il Cacciatore (2012) UHDRip 2160p HEVC HDR ITA DTS ENG DTS-X 7 1 Pi
  • Release date: 1 Jun 2012
  • Release year: 2012
  • Runtime: 127 mintues
  • Country: USA, UK
  • Budget: $170,000,000
Plot:
Snow White, imprisoned daughter of the late king, escapes just as the Magic Mirror declares her the source of the Evil Queen's immortality. The Queen sends her men, led by a local huntsman, to bring her back. But upon her capture, the huntsman finds he's being played and turns against the Queen's men, saving Snow White in the process. Meanwhile, Snow's childhood friend, William, learns that she is alive and sets off to save her.

Available in versions:
x264 x265 720p 1080p 2160p Unknown

Files

Biancaneve e il Cacciatore (2012) UHDRip 2160p HEVC HDR ITA DTS ENG DTS-X 7.1 PirateMKV.mkv (23.6 GB)
Biancaneve e il Cacciatore (2012) UHDRip 2160p HEVC HDR ITA DTS ENG DTS-X 7.1 PirateMKV.mkv 23.6 GB

Description



DATI - TRAMA

Titolo: Snow White and the Huntsman
Nazione: USA, UK
Anno: 2012
Genere: Action, Adventure, Drama, Fantasy
Durata: 127 min
Regia: Rupert Sanders
Voti: IMDb (6.1/10), Rotten Tomatoes (49%), Metacritic (57/100)
Cast: Kristen Stewart, Chris Hemsworth, Charlize Theron, Sam Claflin


Cresciuta dopo la morte del padre dalla crudele matrigna (Charlize Theron), la principessa Biancaneve (Kristen Stewart) è stata costretta a vivere nell'umiliazione e nel disprezzo, rinunciando anche al suo amore per un principe suo coetaneo (Sam Claflin). Quando, poi, uno specchio magico rivela alla crudele regina di essere stata superata in bellezza dalla giovane figliastra, il cacciatore Eric (Chris Hemsworth) sarà incaricato di uccidere la ragazza ma, dopo aver scoperto che la responsabile della morte della sua amata moglie è proprio la regina, l'uomo diventerà il maggior alleato di Biancaneve che - rifugiatasi nell'oscura foresta - sta preparando un piano di vendetta con l'aiuto di sette nani presso cui ha trovato ospitalità.

IMMAGINI




REPORT

General
Unique ID : 221090287442105262469579499405279633141 (0xA65470C4982D97DA9049DDD862321EF5)
Complete name : D:\Downloads\Old\Biancaneve E Il Cacciatore 2012 UHD\Biancaneve e il Cacciatore (2012) UHDRip 2160p HEVC HDR ITA DTS ENG DTS-X 7.1 PirateMKV.mkv
Format : Matroska
Format version : Version 4
File size : 23.6 GiB
Duration : 2 h 11 min
Overall bit rate mode : Variable
Overall bit rate : 25.7 Mb/s
Movie name : Biancaneve e il Cacciatore (2012) - PirateMKV
Encoded date : UTC 2020-11-06 21:37:39
Writing application : mkvmerge v51.0.0 ('I Wish') 64-bit
Writing library : libebml v1.4.0 + libmatroska v1.6.2 / Lavf58.59.100
Copyright : Encoded by PirateMKV

Video
ID : 1
ID in the original source medium : 4113 (0x1011)
Format : HEVC
Format/Info : High Efficiency Video Coding
Format profile : Main [email protected]@High
HDR format : SMPTE ST 2086, HDR10 compatible
Codec ID : V_MPEGH/ISO/HEVC
Duration : 2 h 11 min
Bit rate : 21.1 Mb/s
Width : 3 840 pixels
Height : 1 632 pixels
Display aspect ratio : 2.35:1
Frame rate mode : Constant
Frame rate : 23.976 (24000/1001) FPS
Color space : YUV
Chroma subsampling : 4:2:0 (Type 2)
Bit depth : 10 bits
Bits/(Pixel*Frame) : 0.140
Stream size : 19.4 GiB (82%)
Writing library : x265 3.4+26-ga82c6c7a7:[Windows][GCC 10.2.0][64 bit] 10bit
Encoding settings : cpuid=1111039 / frame-threads=3 / numa-pools=8 / wpp / no-pmode / no-pme / no-psnr / no-ssim / log-level=2 / input-csp=1 / input-res=3840x1632 / interlace=0 / total-frames=0 / level-idc=51 / high-tier=1 / uhd-bd=0 / ref=5 / no-allow-non-conformance / repeat-headers / annexb / aud / hrd / info / hash=0 / no-temporal-layers / no-open-gop / min-keyint=1 / keyint=24 / gop-lookahead=0 / bframes=8 / b-adapt=2 / b-pyramid / bframe-bias=0 / rc-lookahead=40 / lookahead-slices=0 / scenecut=40 / hist-scenecut=0 / radl=0 / no-splice / no-intra-refresh / ctu=64 / min-cu-size=8 / no-rect / no-amp / max-tu-size=32 / tu-inter-depth=4 / tu-intra-depth=4 / limit-tu=0 / rdoq-level=0 / dynamic-rd=0.00 / no-ssim-rd / signhide / no-tskip / nr-intra=0 / nr-inter=0 / no-constrained-intra / no-strong-intra-smoothing / max-merge=3 / limit-refs=3 / limit-modes / me=2 / subme=5 / merange=57 / temporal-mvp / no-frame-dup / no-hme / weightp / weightb / no-analyze-src-pics / deblock=-3:-3 / no-sao / no-sao-non-deblock / rd=4 / selective-sao=0 / no-early-skip / rskip / fast-intra / no-tskip-fast / no-cu-lossless / b-intra / no-splitrd-skip / rdpenalty=0 / psy-rd=2.00 / psy-rdoq=0.00 / no-rd-refine / no-lossless / cbqpoffs=-3 / crqpoffs=-3 / rc=crf / crf=17.0 / qcomp=0.70 / qpstep=4 / stats-write=0 / stats-read=0 / vbv-maxrate=160000 / vbv-bufsize=160000 / vbv-init=0.9 / min-vbv-fullness=50.0 / max-vbv-fullness=80.0 / crf-max=0.0 / crf-min=0.0 / ipratio=1.40 / pbratio=1.30 / aq-mode=3 / aq-strength=0.70 / no-cutree / zone-count=0 / no-strict-cbr / qg-size=32 / no-rc-grain / qpmax=69 / qpmin=0 / no-const-vbv / sar=1 / overscan=0 / videoformat=5 / range=0 / colorprim=9 / transfer=16 / colormatrix=9 / chromaloc=1 / chromaloc-top=2 / chromaloc-bottom=2 / display-window=0 / master-display=G(13250,34500)B(7500,3000)R(34000,16000)WP(15635,16450)L(10000000,50) / cll=1000,400 / min-luma=0 / max-luma=1023 / log2-max-poc-lsb=8 / vui-timing-info / vui-hrd-info / slices=1 / no-opt-qp-pps / no-opt-ref-list-length-pps / no-multi-pass-opt-rps / scenecut-bias=0.05 / hist-threshold=0.03 / no-opt-cu-delta-qp / no-aq-motion / hdr10 / hdr10-opt / no-dhdr10-opt / no-idr-recovery-sei / analysis-reuse-level=0 / analysis-save-reuse-level=0 / analysis-load-reuse-level=0 / scale-factor=0 / refine-intra=0 / refine-inter=0 / refine-mv=1 / refine-ctu-distortion=0 / no-limit-sao / ctu-info=0 / no-lowpass-dct / refine-analysis-type=0 / copy-pic=1 / max-ausize-factor=1.0 / no-dynamic-refine / no-single-sei / no-hevc-aq / no-svt / no-field / qp-adaptation-range=1.00 / no-scenecut-aware-qpconformance-window-offsets / right=0 / bottom=0 / decoder-max-rate=0 / no-vbv-live-multi-pass
Language : English
Default : Yes
Forced : No
Color range : Limited
Color primaries : BT.2020
Transfer characteristics : PQ
Matrix coefficients : BT.2020 non-constant
Mastering display color primaries : Display P3
Mastering display luminance : min: 0.0050 cd/m2, max: 1000 cd/m2
Maximum Content Light Level : 1000 cd/m2
Maximum Frame-Average Light Level : 400 cd/m2
Original source medium : Blu-ray

Audio #1
ID : 2
Format : DTS
Format/Info : Digital Theater Systems
Codec ID : A_DTS
Duration : 2 h 11 min
Bit rate mode : Constant
Bit rate : 768 kb/s
Channel(s) : 6 channels
Channel layout : C L R Ls Rs LFE
Sampling rate : 48.0 kHz
Frame rate : 93.750 FPS (512 SPF)
Bit depth : 24 bits
Compression mode : Lossy
Stream size : 722 MiB (3%)
Title : DTS 5.1
Language : Italian
Default : Yes
Forced : No

Audio #2
ID : 3
Format : DTS XLL X
Format/Info : Digital Theater Systems
Commercial name : DTS-HD Master Audio
Codec ID : A_DTS
Duration : 2 h 11 min
Bit rate mode : Variable
Bit rate : 3 810 kb/s
Channel(s) : 8 channels
Channel(s)_Original : Object Based
ChannelLayout_Original : Object Based
Sampling rate : 48.0 kHz
Frame rate : 93.750 FPS (512 SPF)
Bit depth : 24 bits
Stream size : 3.50 GiB (15%)
Title : DTS-X
Language : English
Default : No
Forced : No

Text #1
ID : 4
Format : UTF-8
Codec ID : S_TEXT/UTF8
Codec ID/Info : UTF-8 Plain Text
Duration : 2 h 10 min
Bit rate : 25 b/s
Count of elements : 908
Stream size : 24.1 KiB (0%)
Title : Normal
Language : Italian
Default : No
Forced : No

Text #2
ID : 5
Format : UTF-8
Codec ID : S_TEXT/UTF8
Codec ID/Info : UTF-8 Plain Text
Duration : 1 h 59 min
Bit rate : 29 b/s
Count of elements : 1056
Stream size : 25.7 KiB (0%)
Title : SDH
Language : English
Default : No
Forced : No

Menu
00:00:00.000 : en:Chapter 01
00:05:05.054 : en:Chapter 02
00:10:26.792 : en:Chapter 03
00:19:48.854 : en:Chapter 04
00:27:46.456 : en:Chapter 05
00:32:40.416 : en:Chapter 06
00:38:04.490 : en:Chapter 07
00:44:02.097 : en:Chapter 08
00:51:08.648 : en:Chapter 09
00:58:17.869 : en:Chapter 10
01:02:08.558 : en:Chapter 11
01:08:57.967 : en:Chapter 12
01:13:36.537 : en:Chapter 13
01:16:59.072 : en:Chapter 14
01:26:57.003 : en:Chapter 15
01:36:30.785 : en:Chapter 16
01:43:37.586 : en:Chapter 17
01:49:51.459 : en:Chapter 18

GOOD DOWNLOAD

Related Torrents

Tracker name
udp://tracker.coppersurfer.tk:6969/announce
udp://tracker.opentrackr.org:1337/announce
udp://tracker.leechers-paradise.org:6969/announce
udp://tracker.zer0day.to:1337/announce
udp://eddie4.nl:6969/announce
udp://9.rarbg.me:2790/announce
udp://9.rarbg.to:2730/announce
udp://9.rarbg.com:2710/announce
udp://tracker.pirateparty.gr:6969/announce
udp://p4p.arenabg.com:1337/announceudp://tracker.coppersurfer.tk:6969/announce
udp://p4p.arenabg.com:1337/announce
udp://tracker.zer0day.to:1337/announce
udp://tracker.leechers-paradise.org:6969/announce
udp://coppersurfer.tk:6969/announce
Torrent hash: FEAD62A26064534BBCC0BB9A8F1B93D5D39D1E18

0 Comment

Login to post comments