Bird Box (2018) 720p H264 italian english Ac3-5 1 multisub-MIRCrew


0

0
seeders: 116 leechers: 50
Added 1 year ago in Movies - Highres Movies
Downloaded 23 times.
Bird Box (2018) 720p H264 italian english Ac3-5 1 multisub-MIRCrew
  • Release date: 21 Dec 2018
  • Release year: 2018
  • Runtime: 124 mintues
  • Country: USA
Plot:
In the wake of an unknown global terror, a mother must find the strength to flee with her children down a treacherous river in search of safety. Due to unseen deadly forces, the perilous journey must be made blindly. Directed by Emmy winner Susanne Bier, Bird Box is a thriller starring Academy Award winner Sandra Bullock, John Malkovich, Sarah Paulson, and Trevante Rhodes.

Available in versions:
WEB-DL WEBRip BDRip x265 720p 1080p 2160p

Files

Bird Box (2018).720p.h264.ita.eng.multisub-MIRCrew (2.29 GB)
Bird Box (2018).720p.h264.ita.eng.multisub-MIRCrew.eng.srt 102.64 KB
Bird Box (2018).720p.h264.ita.eng.multisub-MIRCrew.fre.srt 94.54 KB
Bird Box (2018).720p.h264.ita.eng.multisub-MIRCrew.ger.srt 98.77 KB
Bird Box (2018).720p.h264.ita.eng.multisub-MIRCrew.ita.srt 101.25 KB
Bird Box (2018).720p.h264.ita.eng.multisub-MIRCrew.mkv 2.29 GB
Bird Box (2018).720p.h264.ita.eng.multisub-MIRCrew.NHeng.srt 121.49 KB
Bird Box (2018).720p.h264.ita.eng.multisub-MIRCrew.spa.srt 99.21 KB
Bird Box (2018).720p.h264.ita.eng.multisub-MIRCrew.srt 1.12 KB
by MIRCrew.txt 67 B

Description

Bird Box (2018).720p.H264.italian.english.Ac3-5.1.multisub-MIRCrew


NO FOUND ONLY ORIGINAL RELEASE

My release is always in double track audio italian and Original audio
for select it use VLC or dvd player home
not use wmp

Bird Box (2018)

Quality MIRCrew on HD 720p da 2,3 gb







GENERE: Drammatico, Fantascienza, Horror
ANNO: 2018
REGIA: Susanne Bier
PAESE: USA
DURATA: 117 Min



Sandra Bullock, Sarah Paulson, Rosa Salazar, Machine Gun Kelly, John Malkovich, Trevante Rhodes, Lil Rel Howery, David Dastmalchian, Jacki Weaver, Taylor Handley, Danielle Macdonald, Happy Anderson



Sandra Bullock, nei panni di Maloire, lottare contro un'invasione aliena. La donna, madre di due bambini, farà di tutto per mettere in salvo i propri figli dalle sinistre creature extraterrestri, che tramite il contatto visivo causano una furia violenta negli esseri umani, portandoli alla pazzia. Con gli occhi bendati, la famiglia dovrà imbarcarsi in un viaggio di sopravvivenza per non soccombere alla minaccia, che incombe sulla Terra.



In the wake of an unknown global terror, a mother must find the strength to flee with her children down a treacherous river in search of safety










General
Unique ID : 51197544545378681955698839562339192479 (0x268449D55CD142494C0C83A367E38E9F)
Complete name : Bird Box (2018).720p.h264.ita.eng.multisub-MIRCrew\Bird Box (2018).720p.h264.ita.eng.multisub-MIRCrew.mkv
Format : Matroska
Format version : Version 2
File size : 2.29 GiB
Duration : 2h 4mn
Overall bit rate : 2 639 Kbps
Movie name : MIRCrew
Encoded date : UTC 2018-12-25 22:00:35
Writing application : Lavf54.63.100
Writing library : Lavf54.63.100
COMMENT : mircrew-releases

Video
ID : 1
Format : AVC
Format/Info : Advanced Video Codec
Format profile : [email protected]
Format settings, CABAC : Yes
Format settings, ReFrames : 2 frames
Codec ID : V_MPEG4/ISO/AVC
Duration : 2h 4mn
Bit rate : 1 900 Kbps
Width : 1 280 pixels
Height : 528 pixels
Display aspect ratio : 2.40:1
Frame rate mode : Variable
Frame rate : 24.000 fps
Color space : YUV
Chroma subsampling : 4:2:0
Bit depth : 8 bits
Scan type : Progressive
Bits/(Pixel*Frame) : 0.117
Stream size : 1.58 GiB (69%)
Writing library : x264 core 130 r2273
Encoding settings : cabac=1 / ref=2 / deblock=1:0:0 / analyse=0x1:0x131 / me=hex / subme=7 / psy=1 / psy_rd=1.00:0.00 / mixed_ref=0 / me_range=16 / chroma_me=1 / trellis=1 / 8x8dct=0 / cqm=0 / deadzone=21,11 / fast_pskip=1 / chroma_qp_offset=-2 / threads=6 / lookahead_threads=1 / sliced_threads=0 / nr=0 / decimate=1 / interlaced=0 / bluray_compat=0 / constrained_intra=0 / bframes=3 / b_pyramid=0 / b_adapt=1 / b_bias=0 / direct=3 / weightb=1 / open_gop=0 / weightp=2 / keyint=240 / keyint_min=24 / scenecut=40 / intra_refresh=0 / rc_lookahead=40 / rc=abr / mbtree=1 / bitrate=1900 / ratetol=1.0 / qcomp=0.60 / qpmin=10 / qpmax=69 / qpstep=4 / vbv_maxrate=24000 / vbv_bufsize=24000 / nal_hrd=none / ip_ratio=1.40 / aq=1:1.00
Language : Italian
Default : Yes
Forced : No
_STATISTICS_WRITING_APP : mkvmerge v7.6.0 ('Garden of Dreams') 64bit built on Feb 8 2015 15:12:28
_STATISTICS_WRITING_DATE_UTC : 2018-12-22 14:57:44
_STATISTICS_TAGS : BPS DURATION NUMBER_OF_FRAMES NUMBER_OF_BYTES
DURATION : 02:03:48.000000000
NUMBER_OF_FRAMES : 178272
NUMBER_OF_BYTES : 8079640057

Audio #1
ID : 2
Format : AC-3
Format/Info : Audio Coding 3
Mode extension : CM (complete main)
Codec ID : A_AC3
Duration : 2h 4mn
Bit rate mode : Constant
Bit rate : 384 Kbps
Channel(s) : 6 channels
Channel positions : Front: L C R, Side: L R, LFE
Sampling rate : 48.0 KHz
Bit depth : 16 bits
Compression mode : Lossy
Delay relative to video : 1mn 5s
Stream size : 342 MiB (15%)
Title : ITA
Language : Italian
Default : Yes
Forced : Yes
DURATION : 02:04:22.688000000
NUMBER_OF_FRAMES : 233209
NUMBER_OF_BYTES : 358209024
_STATISTICS_WRITING_APP : mkvmerge v7.6.0 ('Garden of Dreams') 64bit built on Feb 8 2015 15:12:28
_STATISTICS_WRITING_DATE_UTC : 2018-12-22 14:57:44
_STATISTICS_TAGS : BPS DURATION NUMBER_OF_FRAMES NUMBER_OF_BYTES

Audio #2
ID : 3
Format : AC-3
Format/Info : Audio Coding 3
Mode extension : CM (complete main)
Codec ID : A_AC3
Duration : 2h 4mn
Bit rate mode : Constant
Bit rate : 384 Kbps
Channel(s) : 6 channels
Channel positions : Front: L C R, Side: L R, LFE
Sampling rate : 48.0 KHz
Bit depth : 16 bits
Compression mode : Lossy
Delay relative to video : 1mn 5s
Stream size : 342 MiB (15%)
Title : ENG
Language : English
Default : No
Forced : No
_STATISTICS_WRITING_APP : mkvmerge v7.6.0 ('Garden of Dreams') 64bit built on Feb 8 2015 15:12:28
_STATISTICS_WRITING_DATE_UTC : 2018-12-22 14:57:44
_STATISTICS_TAGS : BPS DURATION NUMBER_OF_FRAMES NUMBER_OF_BYTES
DURATION : 02:03:47.168000000
NUMBER_OF_FRAMES : 232099
NUMBER_OF_BYTES : 415921408

Related Torrents

Tracker name
udp://tracker.coppersurfer.tk:80/announce
udp://tracker.pirateparty.gr:6969/announce
udp://tracker.internetwarriors.net:1337/announce
udp://tracker.opentrackr.org:1337/announce
udp://9.rarbg.to:2730/announce
udp://9.rarbg.to:2740/announce
udp://9.rarbg.to:2720/announce
udp://9.rarbg.to:2710/announce
udp://9.rarbg.me:2740/announce
udp://9.rarbg.me:2770/announce
udp://9.rarbg.me:2710/announce
udp://tracker.torrent.eu.org:451
udp://tracker.port443.xyz:6969/announce
udp://IPv6.open-internet.nl:6969/announce
udp://p4p.arenabg.ch:1337/announce
udp://denis.stalker.upeer.me:1337/announce
udp://shadowshq.yi.org:6969/announce
udp://eddie4.nl:6969/announce
udp://tracker.mg64.net:6969/announce
udp://inferno.demonoid.pw:3418/announce
udp://tracker.cyberia.is:6969/announce
udp://tracker.zer0day.to:1337/announce
udp://asnet.pw:2710/announce
udp://ipv6.tracker.harry.lu:80/announce
udp://glotorrents.pw:6969/announce
udp://tracker.torrent.eu.org:451/announce
udp://open.demonii.si:1337/announce
udp://tracker.qt.is:6969/announce
udp://9.rarbg.to:2770/announce
udp://9.rarbg.me:2730/announce
udp://tracker.ds.is:6969/announce
udp://exodus.desync.com:6969/announce
udp://tracker.tiny-vps.com:6969/announce
udp://tracker.justseed.it:1337/announce
udp://tracker.coppersurfer.tk:6969/announce
udp://thetracker.org:80/announce
udp://tracker.vanitycore.co:6969/announce
udp://tracker.cypherpunks.ru:6969/announce
udp://ipv4.tracker.harry.lu:80/announce
udp://tracker.open-internet.nl:6969/announce
udp://public.popcorn-tracker.org:6969/announce
udp://tracker.0o.is:6969/announce
udp://tracker.trackerfix.com:80/announce
udp://bt.xxx-tracker.com:2710/announce
udp://open.stealth.si:80/announce
http://share.camoe.cn:8080/announce
https://open.acgnxtracker.com:443/announce
http://tracker.tfile.co:80/announce
http://retracker.spb.ru:80/announce
http://open.acgnxtracker.com/announce
http://bt.acg.gg:1578/announce
http://tracker3.itzmx.com:8080/announce
udp://tracker.acg.gg:2710/announce
Torrent hash: FE914C718A330E2D0EE06D6DA1DAAF00B4A8113B

0 Comment

Login to post comments