Black Sabbath - Heaven And Hell (1980) (PBTHAL LP 24-96) [FLAC] vtwin88cube


0

0
seeders: 36 leechers: 9 updated: 23 hours ago
Added 4 days ago in Music - Lossless
Downloaded 2 times.
Black Sabbath - Heaven And Hell (1980) (PBTHAL LP 24-96) [FLAC] vtwin88cube

Files

00.-Black Sabbath - Heaven And Hell.m3u (815.8 MB)
00.-Black Sabbath - Heaven And Hell.m3u 204 B
01.-Neon Knights.flac 81.2 MB
02.-Children Of The Sea.flac 111.1 MB
03.-Lady Evil.flac 92.3 MB
04.-Heaven And Hell.flac 137.7 MB
05.-Wishing Well.flac 89.3 MB
06.-Die Young.flac 95.2 MB
07.-Walk Away.flac 89.8 MB
08.-Lonely Is The Word.flac 118.9 MB
DR14.txt 1.2 KB
folder.jpg 185.5 KB
lineage.txt 409 B

Description

Black Sabbath
Heaven And Hell (1980)
FLAC LOSSLESS 24bit-96kHz
UK PBTHAL Vinyl Rip


allmusic.com...

Many had left Black Sabbath for dead at the dawn of the '80s, and with good reason -- the band's last few albums were not even close to their early classics, and original singer Ozzy Osbourne had just split from the band. But the Sabs had found a worthy replacement in former Elf and Rainbow singer Ronnie James Dio, and bounced back to issue their finest album since the early '70s, 1980's Heaven and Hell. The band sounds reborn and re-energized throughout. Several tracks easily rank among Sabbath's all-time best, such as the vicious album opener, "Neon Knights," the moody, mid-paced epic "Children of the Sea," and the title track, which features one of Tony Iommi 's best guitar riffs. With Heaven and Hell, Black Sabbath were obviously back in business. Unfortunately, the Dio-led version of the band would only record one more studio album before splitting up (although Dio would return briefly in the early '90s). One of Sabbath's finest records.


foobar2000 1.4.3 / Dynamic Range Meter 1.1.1
log date: 2020-12-19 16:09:35

--------------------------------------------------------------------------------
Analyzed: Black Sabbath / Heaven And Hell
--------------------------------------------------------------------------------

DR Peak RMS Duration Track
--------------------------------------------------------------------------------
DR13 -1.40 dB -16.16 dB 3:54 01-Neon Knights
DR17 0.00 dB -19.39 dB 5:36 02-Children Of The Sea
DR15 -0.78 dB -17.97 dB 4:26 03-Lady Evil
DR16 -0.03 dB -19.68 dB 7:02 04-Heaven And Hell
DR14 -0.84 dB -16.63 dB 4:09 05-Wishing Well
DR13 -2.09 dB -17.77 dB 4:46 06-Die Young
DR14 -1.61 dB -17.74 dB 4:25 07-Walk Away
DR15 0.00 dB -18.56 dB 5:53 08-Lonely Is The Word

Number of tracks: 8
Official DR value: DR14

Samplerate: 96000 Hz
Channels: 2
Bits per sample: 24
Bitrate: 2823 kbps
Codec: FLAC





Support the artists...
buy it if you like it!

Thanks for Seeding!
Cheers! ;)

Related Torrents

Tracker name
udp://tracker.openbittorrent.com:80/announce
udp://exodus.desync.com:6969/announce
udp://denis.stalker.upeer.me:6969/announce
udp://tracker.torrent.eu.org:451/announce
udp://tracker.coppersurfer.tk:6969/announce
udp://tracker.internetwarriors.net:1337/announce
udp://explodie.org:6969/announce
udp://tracker.leechers-paradise.org:6969/announce
http://tracker.opentrackr.org:1337/announce
udp://tracker.zer0day.to:1337/announce
udp://tracker.leechers-paradise.org:6969/announce
udp://coppersurfer.tk:6969/announce
Torrent hash: 601B01AFDCB850CFA23B4E64A58F422777D5B6C7

0 Comment

Login to post comments