Blue Oyster Cult - Cultosaurus Erectus (1980) (PBTHAL LP 24-96) [FLAC] vtwin88cu...


0

0
seeders: 22 leechers: 7 updated: 22 hours ago
Added 4 days ago in Music - Lossless
Downloaded 1 time.
Blue Oyster Cult - Cultosaurus Erectus (1980) (PBTHAL LP 24-96) [FLAC] vtwin88cu...

Files

00.-Blue Öyster Cult - Cultösaurus Erectus.m3u (899.4 MB)
00.-Blue Öyster Cult - Cultösaurus Erectus.m3u 204 B
01.-Black Blade.flac 142.9 MB
02.-Monsters.flac 110.1 MB
03.-Divine Wind.flac 109 MB
04.-Deadline.flac 93.9 MB
05.-The Marshall Plan.flac 117 MB
06.-Hungry Boys.flac 77.2 MB
07.-Fallen Angel.flac 67.5 MB
08.-Lips In The Hills.flac 95.9 MB
09.-Unknown Tongue.flac 85.6 MB
DR13.txt 1.3 KB
folder.jpg 309.5 KB
lineage.txt 409 B

Description

Blue Öyster Cult
Cultösaurus Erectus (1980)
FLAC LOSSLESS 24bit-96kHz
Minimax PBTHAL Vinyl Rip


allmusic.com...

Signing on with Deep Purple/Black Sabbath producer Martin Birch, Blue Öyster Cult made more of a guitar-heavy hard rock album in Cultosaurus Erectus after flirting with pop ever since the success of Agents of Fortune. (They also promoted this album by going out on a co-headlining tour with Sabbath.) Gone are the female backup singers, the pop hooks, the songs based on keyboard structures, and they are replaced by lots of guitar solos and a beefed-up rhythm section. But the band still were not generating strong enough material to compete with their concert repertoire, so they found themselves in the bind of being a strong touring act unable to translate that success into record sales.


foobar2000 1.4.3 / Dynamic Range Meter 1.1.1
log date: 2020-12-17 11:02:27

--------------------------------------------------------------------------------
Analyzed: Blue Öyster Cult / Cultösaurus Erectus
--------------------------------------------------------------------------------

DR Peak RMS Duration Track
--------------------------------------------------------------------------------
DR13 -1.81 dB -18.47 dB 6:36 01-Black Blade
DR12 -2.20 dB -18.54 dB 5:11 02-Monsters
DR14 -1.27 dB -17.46 dB 5:09 03-Divine Wind
DR14 -1.92 dB -18.11 dB 4:30 04-Deadline
DR13 -2.81 dB -17.87 dB 5:28 05-The Marshall Plan
DR14 -0.84 dB -16.71 dB 3:41 06-Hungry Boys
DR13 -2.15 dB -17.44 dB 3:14 07-Fallen Angel
DR13 -0.70 dB -16.53 dB 4:27 08-Lips In The Hills
DR13 -2.29 dB -17.85 dB 3:59 09-Unknown Tongue

Number of tracks: 9
Official DR value: DR13

Samplerate: 96000 Hz
Channels: 2
Bits per sample: 24
Bitrate: 2998 kbps
Codec: FLAC





Support the artists...
buy it if you like it!

Thanks for Seeding!
Cheers! ;)

Related Torrents

Tracker name
udp://tracker.openbittorrent.com:80/announce
udp://exodus.desync.com:6969/announce
udp://denis.stalker.upeer.me:6969/announce
udp://tracker.torrent.eu.org:451/announce
udp://tracker.coppersurfer.tk:6969/announce
udp://tracker.internetwarriors.net:1337/announce
udp://explodie.org:6969/announce
udp://tracker.leechers-paradise.org:6969/announce
http://tracker.opentrackr.org:1337/announce
udp://tracker.zer0day.to:1337/announce
udp://tracker.leechers-paradise.org:6969/announce
udp://coppersurfer.tk:6969/announce
Torrent hash: 13E3F56F042A31B4C7DDE65160E30D9B8E53609B

0 Comment

Login to post comments