Colette (2018) 720p H264 italian english Ac3-5 1 sub ita eng NUita-MIRCrew


0

0
seeders: 126 leechers: 67 updated: 1 year ago
Added 1 year ago in Movies - Highres Movies
Downloaded 28 times.
Colette (2018) 720p H264 italian english Ac3-5 1 sub ita eng NUita-MIRCrew
  • Release date: 20 Dec 2018
  • Release year: 2018
  • Runtime: 111 mintues
  • Country: UK, USA, France, Hungary, Netherlands
Plot:
After marrying successful Parisian writer Henry Gauthier-Villars, known commonly as "Willy" (Dominic West), Gabrielle Colette (Keira Knightley) is transplanted from her childhood home in rural France to the intellectual and artistic splendor of Paris. Soon after, Willy convinces Colette to ghostwrite for him. Colette, in turn, pens a semi-autobiographical novel about a witty and brazen country girl named Claudine, sparking a bestseller and a cultural sensation. After its success, Colette and Willy become the talk of Paris and their adventures inspire additional Claudine novels. Colette's fight over creative ownership and gender roles drives her to overcome societal constraints, revolutionizing literature, fashion and sexual expression.

Available in versions:
WEB-DL BDRip x265 720p 1080p Unknown

Files

Colette (2018).720p.h264.ita.eng.sub.ita.NUita.eng-MIRCrew.eng.srt (2 GB)
Colette (2018).720p.h264.ita.eng.sub.ita.NUita.eng-MIRCrew.eng.srt 111.2 KB
Colette (2018).720p.h264.ita.eng.sub.ita.NUita.eng-MIRCrew.ita.srt 90.5 KB
Colette (2018).720p.h264.ita.eng.sub.ita.NUita.eng-MIRCrew.mkv 2 GB
Colette (2018).720p.h264.ita.eng.sub.ita.NUita.eng-MIRCrew.NUita.srt 100 KB
Colette (2018).720p.h264.ita.eng.sub.ita.NUita.eng-MIRCrew.srt 1.8 KB

Description

Colette (2018).720p.H264.italian.english.Ac3-5.1.sub.ita.eng.NUita-MIRCrew


NO FOUND ONLY ORIGINAL RELEASE

My release is always in double track audio italian and Original audio
for select it use VLC or dvd player home
not use wmp

PRESENTI I SOTTOTITOLI ITALIANI PER NON UDENTI

Colette (2018)

Quality MIRCrew on HD 720p da  2,0 gb









Riconoscimenti
2019 - Satellite Award

   Candidatura per la miglior colonna sonora originale a Thomas Adès
   Candidatura per i migliori costumi a Andrea Flesch

2018 - British Independent Film Awards

Titolo originale Colette
Lingua originale inglese
Paese di produzione Regno Unito, Stati Uniti d'America, Ungheria
Anno 2018
Durata 111 min
Genere drammatico, biografico
Regia Wash Westmoreland
Soggetto Richard Glatzer
Sceneggiatura Wash Westmoreland, Richard Glatzer, Rebecca Lenkiewicz



   Keira Knightley: Colette
   Dominic West: Willy
   Fiona Shaw: Sido
   Denise Gough: Missy
   Eleanor Tomlinson: Georgie Raoul-Duval
   Aiysha Hart: Polaire
   Robert Pugh: Jules



Colette lascia la campagna, dove è cresciuta, per sposare Willy, un noto e famigerato imprenditore letterario. Arrivata a Parigi, viene immediatamente trascinata nella società libertina della Belle Époque, che la ispira per una serie di racconti autobiografici intitolata Claudine



Colette is pushed by her husband to write novels under his name. Upon their success, she fights to make her talents known, challenging gender norms.






General
Unique ID                                : 118819934327385008427816194410949663115 (0x5963E30F3A94DA051AD576842E1C598B)
Complete name                            : Colette (2018).720p.h264.ita.eng.sub.ita.NUita.eng-MIRCrew\Colette (2018).720p.h264.ita.eng.sub.ita.NUita.eng-MIRCrew.mkv
Format                                   : Matroska
Format version                           : Version 4 / Version 2
File size                                : 2.04 GiB
Duration                                 : 1h 52mn
Overall bit rate                         : 2 604 Kbps
Movie name                               : MIRCrew
Encoded date                             : UTC 2019-04-05T07:52:59Z
Writing application                      : mkvmerge v26.0.0 ('In The Game') 64-bit
Writing library                          : Lavf55.12.0

Video
ID                                       : 1
Format                                   : AVC
Format/Info                              : Advanced Video Codec
Format profile                           : [email protected]
Format settings, CABAC                   : Yes
Format settings, ReFrames                : 4 frames
Codec ID                                 : V_MPEG4/ISO/AVC
Duration                                 : 1h 52mn
Bit rate                                 : 1 784 Kbps
Nominal bit rate                         : 1 900 Kbps
Width                                    : 1 280 pixels
Height                                   : 528 pixels
Display aspect ratio                     : 2.40:1
Frame rate                               : 23.976 fps
Color space                              : YUV
Chroma subsampling                       : 4:2:0
Bit depth                                : 8 bits
Scan type                                : Progressive
Bits/(Pixel*Frame)                       : 0.110
Stream size                              : 1.40 GiB (69%)
Title                                    : MIRCrew
Writing library                          : x264 core 142 r2479 dd79a61
Encoding settings                        : cabac=1 / ref=1 / deblock=1:0:0 / analyse=0x1:0x111 / me=hex / subme=2 / psy=1 / psy_rd=1.00:0.00 / mixed_ref=0 / me_range=16 / chroma_me=1 / trellis=0 / 8x8dct=0 / cqm=0 / deadzone=21,11 / fast_pskip=1 / chroma_qp_offset=0 / threads=6 / lookahead_threads=2 / sliced_threads=0 / nr=0 / decimate=1 / interlaced=0 / bluray_compat=0 / constrained_intra=0 / bframes=3 / b_pyramid=2 / b_adapt=1 / b_bias=0 / direct=1 / weightb=1 / open_gop=0 / weightp=1 / keyint=240 / keyint_min=24 / scenecut=40 / intra_refresh=0 / rc_lookahead=10 / rc=abr / mbtree=1 / bitrate=1900 / ratetol=1.0 / qcomp=0.60 / qpmin=0 / qpmax=69 / qpstep=4 / vbv_maxrate=50000 / vbv_bufsize=62500 / nal_hrd=none / filler=0 / ip_ratio=1.40 / aq=1:1.00
Language                                 : Italian
Default                                  : Yes
Forced                                   : No
DURATION                                 : 01:52:03.175000000
NUMBER_OF_FRAMES                         : 161195
NUMBER_OF_BYTES                          : 1547233549
_STATISTICS_WRITING_APP                  : mkvmerge v26.0.0 ('In The Game') 64-bit
_STATISTICS_WRITING_DATE_UTC             : 2019-04-07 14:50:03
_STATISTICS_TAGS                         : BPS DURATION NUMBER_OF_FRAMES NUMBER_OF_BYTES
Color primaries                          : BT.709-5, BT.1361, IEC 61966-2-4, SMPTE RP177
Transfer characteristics                 : BT.709-5, BT.1361
Matrix coefficients                      : BT.709-5, BT.1361, IEC 61966-2-4 709, SMPTE RP177

Audio #1
ID                                       : 2
Format                                   : AC-3
Format/Info                              : Audio Coding 3
Mode extension                           : CM (complete main)
Codec ID                                 : A_AC3
Duration                                 : 1h 52mn
Bit rate mode                            : Constant
Bit rate                                 : 384 Kbps
Channel(s)                               : 6 channels
Channel positions                        : Front: L C R, Side: L R, LFE
Sampling rate                            : 48.0 KHz
Bit depth                                : 16 bits
Compression mode                         : Lossy
Delay relative to video                  : -5ms
Stream size                              : 309 MiB (15%)
Title                                    : Ita Ac3 5.1
Language                                 : Italian
Default                                  : Yes
Forced                                   : No
DURATION                                 : 01:52:24.640000000
NUMBER_OF_FRAMES                         : 210770
NUMBER_OF_BYTES                          : 323742720
_STATISTICS_WRITING_APP                  : mkvmerge v26.0.0 ('In The Game') 64-bit
_STATISTICS_WRITING_DATE_UTC             : 2019-04-07 14:50:03
_STATISTICS_TAGS                         : BPS DURATION NUMBER_OF_FRAMES NUMBER_OF_BYTES

Audio #2
ID                                       : 3
Format                                   : AC-3
Format/Info                              : Audio Coding 3
Mode extension                           : CM (complete main)
Codec ID                                 : A_AC3
Duration                                 : 1h 52mn
Bit rate mode                            : Constant
Bit rate                                 : 384 Kbps
Channel(s)                               : 6 channels
Channel positions                        : Front: L C R, Side: L R, LFE
Sampling rate                            : 48.0 KHz
Bit depth                                : 16 bits
Compression mode                         : Lossy
Delay relative to video                  : -5ms
Stream size                              : 309 MiB (15%)
Title                                    : Eng Ac3 5.1
Language                                 : English
Default                                  : No
Forced                                   : No
DURATION                                 : 01:52:03.232000000
NUMBER_OF_FRAMES                         : 210101
NUMBER_OF_BYTES                          : 322715136
_STATISTICS_WRITING_APP                  : mkvmerge v26.0.0 ('In The Game') 64-bit
_STATISTICS_WRITING_DATE_UTC             : 2019-04-07 14:50:03
_STATISTICS_TAGS                         : BPS DURATION NUMBER_OF_FRAMES NUMBER_OF_BYTES

Menu
00:00:00.000                             : :Chapter 1
00:06:46.280                             : :Chapter 2
00:12:25.911                             : :Chapter 3
00:18:55.592                             : :Chapter 4
00:24:20.917                             : :Chapter 5
00:29:14.753                             : :Chapter 6
00:36:25.683                             : :Chapter 7
00:42:02.978                             : :Chapter 8
00:48:34.536                             : :Chapter 9
00:52:45.871                             : :Chapter 10
00:57:36.494                             : :Chapter 11
01:02:18.067                             : :Chapter 12
01:09:45.055                             : :Chapter 13
01:15:22.142                             : :Chapter 14
01:19:53.413                             : :Chapter 15
01:23:17.325                             : :Chapter 16
01:29:26.694                             : :Chapter 17
01:35:05.700                             : :Chapter 18
01:41:11.357                             : :Chapter 19
01:45:15.392                             : :Chapter 20

Related Torrents

Tracker name
udp://tracker.coppersurfer.tk:6969/announce
udp://tracker.torrent.eu.org:451/announce
udp://tracker.pirateparty.gr:6969/announce
udp://tracker.opentrackr.org:1337/announce
udp://tracker.leechers-paradise.org:6969/announce
udp://tracker.eddie4.nl:6969/announce
udp://shadowshq.yi.org:6969/announce
udp://shadowshq.eddie4.nl:6969/announce
udp://inferno.demonoid.pw:3391/announce
udp://eddie4.nl:6969/announce
udp://9.rarbg.to:2730/announce
udp://9.rarbg.com:2710/announce
udp://9.rarbg.me:2780/announce
udp://62.138.0.158:6969/announce
udp://151.80.120.114:2710/announce
Torrent hash: 53C85C61094DCA868C425A8E2DE5963EB60EB48A

0 Comment

Login to post comments