Creedence Clearwater - Creedence Gold (1972) (PBTHAL LP 24-96) [FLAC] vtwin88cub...


0

0
seeders: 38 leechers: 5 updated: 21 hours ago
Added 4 days ago in Music - Lossless
Downloaded 13 times.
Creedence Clearwater - Creedence Gold (1972) (PBTHAL LP 24-96) [FLAC] vtwin88cub...

Files

00.-Creedence Clearwater Revival - Creedence Gold.m3u (925.3 MB)
00.-Creedence Clearwater Revival - Creedence Gold.m3u 204 B
01.-Proud Mary.flac 73.9 MB
02.-Down On The Corner.flac 64.9 MB
03.-Bad Moon Rising.flac 55.5 MB
04.-I Heard It Through The Grapevine.flac 256.1 MB
05.-The Midnight Special.flac 93.3 MB
06.-Have You Ever Seen The Rain.flac 62 MB
07.-Born On The Bayou.flac 122.6 MB
08.-Suzie Q.flac 196.8 MB
DR13.txt 1.3 KB
folder.jpg 189.2 KB
lineage.txt 614 B

Description

Creedence Clearwater Revival
Creedence Gold (1972)
FLAC LOSSLESS 24bit-96kHz
PBTHAL Vinyl Rip


allmusic.com...

At a time when rock music was evolving away from the forces that had made it possible in the first place, Creedence Clearwater Revival brought rock back to its roots with a concise synthesis of rockabilly, swamp pop, R&B, and country. Although the band's tight, punchy arrangements were a group effort, their vision belonged to singer, songwriter, guitarist, and leader John Fogerty. Fogerty's classic compositions for Creedence evoked enduring images of Americana, and they simultaneously reflected burning social issues of the day. The band's genius was their ability to accomplish this with the economic, primal power of a classic rockabilly ensemble.


foobar2000 1.4.3 / Dynamic Range Meter 1.1.1
log date: 2020-11-18 11:16:22

--------------------------------------------------------------------------------
Analyzed: Creedence Clearwater Revival / Creedence Gold (Quad)
--------------------------------------------------------------------------------

DR Peak RMS Duration Track
--------------------------------------------------------------------------------
DR13 -0.70 dB -15.73 dB 3:17 01-Proud Mary
DR13 -2.26 dB -17.76 dB 2:52 02-Down On The Corner
DR13 -2.08 dB -17.58 dB 2:24 03-Bad Moon Rising
DR13 -0.88 dB -15.94 dB 11:06 04-I Heard It Through The Grapevine
DR13 -2.56 dB -18.51 dB 4:16 05-The Midnight Special
DR13 -0.88 dB -16.64 dB 2:43 06-Have You Ever Seen The Rain?
DR13 -0.70 dB -16.18 dB 5:19 07-Born On The Bayou
DR12 -3.11 dB -19.28 dB 8:43 08-Suzie Q

Number of tracks: 8
Official DR value: DR13

Samplerate: 96000 Hz
Channels: 2
Bits per sample: 24
Bitrate: 3151 kbps
Codec: FLAC




Support the artists...
buy it if you like it!

Thanks for Seeding!
Cheers! ;)

Related Torrents

Tracker name
udp://tracker.openbittorrent.com:80/announce
udp://exodus.desync.com:6969/announce
udp://denis.stalker.upeer.me:6969/announce
udp://tracker.torrent.eu.org:451/announce
udp://tracker.coppersurfer.tk:6969/announce
udp://tracker.internetwarriors.net:1337/announce
udp://explodie.org:6969/announce
udp://tracker.leechers-paradise.org:6969/announce
http://tracker.opentrackr.org:1337/announce
udp://tracker.zer0day.to:1337/announce
udp://tracker.leechers-paradise.org:6969/announce
udp://coppersurfer.tk:6969/announce
Torrent hash: A3513AC832FB3BEFC918FFCE2ECC3585AF142026

0 Comment

Login to post comments