Crosby, Stills, Nash & Young - Deja Vu (1970) (PBTHAL LP 24-96) [FLAC] vtwin88cu...


0

0
seeders: 60 leechers: 10 updated: 15 hours ago
Added 2 days ago in Music - Lossless
Downloaded 4 times.
Crosby, Stills, Nash & Young - Deja Vu (1970) (PBTHAL LP 24-96) [FLAC] vtwin88cu...

Files

00.-Crosby, Stills, Nash & Young - Déjà Vu.m3u (746.7 MB)
00.-Crosby, Stills, Nash & Young - Déjà Vu.m3u 204 B
01.-Carry On.flac 92.6 MB
02.-Teach Your Children.flac 56.7 MB
03.-Almost Cut My Hair.flac 91.7 MB
04.-Helpless.flac 71.3 MB
05.-Woodstock.flac 83.1 MB
06.-Déjà Vu.flac 84.6 MB
07.-Our House.flac 59.3 MB
08.-4 + 20.flac 39.6 MB
09.-Country Girl.flac 112.5 MB
10.-Everybody I Love You.flac 55.1 MB
DR12.txt 1.3 KB
folder.jpg 263.3 KB
lineage.txt 409 B

Description

Crosby, Stills, Nash & Young
Déjà Vu (1970)
FLAC LOSSLESS 24bit-96kHz
PBTHAL Vinyl Rip


allmusic.com...

One of the most hotly awaited second albums in history -- right up there with those by the Beatles and the Band -- Déjà Vu lived up to its expectations and rose to number one on the charts. Those achievements are all the more astonishing given the fact that the group barely held together through the estimated 800 hours it took to record Déjà Vu and scarcely functioned as a group for most of that time. Déjà Vu worked as an album, a product of four potent musical talents who were all ascending to the top of their game coupled with some very skilled production, engineering, and editing.


foobar2000 1.4.3 / Dynamic Range Meter 1.1.1
log date: 2020-11-19 08:36:27

--------------------------------------------------------------------------------
Analyzed: Crosby, Stills, Nash & Young / Deja Vu
--------------------------------------------------------------------------------

DR Peak RMS Duration Track
--------------------------------------------------------------------------------
DR12 -0.72 dB -15.28 dB 4:28 01-Carry On
DR12 -2.69 dB -17.44 dB 2:53 02-Teach Your Children
DR12 -0.88 dB -15.16 dB 4:29 03-Almost Cut My Hair
DR12 -2.21 dB -17.21 dB 3:41 04-Helpless
DR11 -2.07 dB -15.39 dB 3:55 05-Woodstock
DR12 -0.96 dB -15.88 dB 4:13 06-Deja Vu
DR12 -2.80 dB -17.49 dB 3:00 07-Our House
DR11 -6.44 dB -20.20 dB 2:08 08-4 + 20
DR11 -0.70 dB -14.84 dB 5:17 09-Country Girl
DR11 -1.21 dB -13.88 dB 2:26 10-Everybody I Love You

Number of tracks: 10
Official DR value: DR12

Samplerate: 96000 Hz
Channels: 2
Bits per sample: 24
Bitrate: 3156 kbps
Codec: FLAC




Support the artists...
buy it if you like it!

Thanks for Seeding!
Cheers! ;)

Related Torrents

Tracker name
udp://tracker.openbittorrent.com:80/announce
udp://exodus.desync.com:6969/announce
udp://denis.stalker.upeer.me:6969/announce
udp://tracker.torrent.eu.org:451/announce
udp://tracker.coppersurfer.tk:6969/announce
udp://tracker.internetwarriors.net:1337/announce
udp://explodie.org:6969/announce
udp://tracker.leechers-paradise.org:6969/announce
http://tracker.opentrackr.org:1337/announce
udp://tracker.zer0day.to:1337/announce
udp://tracker.leechers-paradise.org:6969/announce
udp://coppersurfer.tk:6969/announce
Torrent hash: 345ABA31AF48C48963A6E478C9D010EDBE7C3F88

0 Comment

Login to post comments