Fatale (2020) 1080p 5 1 - 2 0 x264 Phun Psyz


0

0
seeders: 5 leechers: 5 updated: 1 month ago
Added 1 month ago in Movies - Highres Movies
Downloaded 0 time.
Fatale (2020) 1080p 5 1 - 2 0 x264 Phun Psyz
  • Release date: 18 Dec 2020
  • Release year: 2020
  • Runtime: 102 mintues
  • Country: USA
  • Keywords: murder, lionsgate
Plot:
After a one-night stand, a successful married man finds himself entangled in a cunning police detective's latest investigation.

Available in versions:
Other x264 x265 720p 1080p 4k

Files

Fatale (2020) 1080p 5.1 - 2.0 x264 Phun Psyz.mp4 (1.78 GB)
Fatale (2020) 1080p 5.1 - 2.0 x264 Phun Psyz.mp4 1.78 GB

Description

www.imdb.com/title/tt8829830/

After a one-night stand, a successful married man finds himself entangled in a cunning police detective's latest investigation.

Source: EVO (web)



Format : MPEG-4
Format profile : Base Media / Version 2
Codec ID : mp42 (isom/iso2/avc1/mp41)
File size : 1.78 GiB
Duration : 1 h 42 min
Overall bit rate : 2 491 kb/s
Writing application : HandBrake 1.3.3 2020061300

Video
ID : 1
Format : AVC
Format/Info : Advanced Video Codec
Format profile : [email protected]
Format settings : CABAC / 1 Ref Frames
Format settings, CABAC : Yes
Format settings, Reference : 1 frame
Codec ID : avc1
Codec ID/Info : Advanced Video Coding
Duration : 1 h 42 min
Bit rate : 2 003 kb/s
Width : 1 920 pixels
Height : 800 pixels
Display aspect ratio : 2.40:1
Frame rate mode : Variable
Frame rate : 23.976 FPS
Minimum frame rate : 12.048 FPS
Maximum frame rate : 23.981 FPS
Color space : YUV
Chroma subsampling : 4:2:0
Bit depth : 8 bits
Scan type : Progressive
Bits/(Pixel*Frame) : 0.054
Stream size : 1.44 GiB (80%)
Color primaries : BT.709
Transfer characteristics : BT.709
Matrix coefficients : BT.709

Audio #1
ID : 2
Format : AC-3
Format/Info : Audio Coding 3
Commercial name : Dolby Digital
Codec ID : ac-3
Duration : 1 h 42 min
Bit rate mode : Constant
Bit rate : 320 kb/s
Channel(s) : 6 channels
Channel layout : L R C LFE Ls Rs
Sampling rate : 48.0 kHz
Frame rate : 31.250 FPS (1536 SPF)
Compression mode : Lossy
Stream size : 235 MiB (13%)
Title : Surround
Language : English
Service kind : Complete Main
Default : Yes

Audio #2
ID : 3
Format : AAC LC
Format/Info : Advanced Audio Codec Low Complexity
Codec ID : mp4a-40-2
Duration : 1 h 42 min
Bit rate mode : Constant
Bit rate : 160 kb/s
Channel(s) : 2 channels
Channel layout : L R
Sampling rate : 48.0 kHz
Frame rate : 46.875 FPS (1024 SPF)
Compression mode : Lossy
Stream size : 118 MiB (6%)
Title : Stereo
Language : English

Related Torrents

Tracker name
udp://tracker.tiny-vps.com:6969/announce
udp://open.stealth.si:80/announce
http://bt2.archive.org:6969/announce
udp://p4p.arenabg.com:1337/announce
udp://tracker.coppersurfer.tk:6969/announce
udp://tracker.uw0.xyz:6969/announce
udp://tracker.torrent.eu.org:451/announce
udp://explodie.org:6969/announce
udp://ipv4.tracker.harry.lu:80/announce
udp://retracker.lanta-net.ru:2710/announce
udp://exodus.desync.com:6969/announce
udp://tracker.iamhansen.xyz:2000/announce
udp://opentor.org:2710/announce
udp://tracker.moeking.me:6969/announce
Torrent hash: 0A80D959FE6BFDFE7F59FD21741DEEE98BB49F22

0 Comment

Login to post comments