Fighting The Sky 2019 Movies HDRip x264 5 1 with Sample ☻rDX☻


0

0
seeders: 21 leechers: 16
Added 2 years ago in Movies - Highres Movies
Downloaded 2 times.
Fighting The Sky 2019 Movies HDRip x264 5 1 with Sample ☻rDX☻
  • Release date: 11 Aug 2018
  • Release year: 2018
  • Runtime: 97 mintues
  • Country: USA
Plot:
Strange other-worldly sounds are echoing around the world. A group of researchers, led by expert ufologist Lorraine Gardner, begin an expedition to track down the point of origin from which the sounds emerge. Yet as their journey deepens, they begin to discover more than they bargained for.

Available in versions:
Other WEB-DL WEBRip x264 720p 1080p

Files

Sample ~ Fighting The Sky 2019 Movies HDRip x264 5.1 ☻rDX☻.mkv (790.7 MB)
Sample ~ Fighting The Sky 2019 Movies HDRip x264 5.1 ☻rDX☻.mkv 8 MB
Fighting The Sky 2019 Movies HDRip x264 5.1 ☻rDX☻.mkv 782.6 MB

Description

Fighting The Sky 2019 Movies HDRip x264 5.1 with Sample ☻rDX☻
===============================================================================================

SCREEN SHOTS:



or

https://iphonehosting.eu/2018/9/a/buy/1.html

File size : 783 MiB
Duration : 1 h 37 min
Overall bit rate mode : Constant
Overall bit rate : 1 123 kb/s
Movie name : Fighting The Sky 2019 Movies HDRip x264 5.1 ☻rDX☻

Video
ID : 2
Format : AVC
Format/Info : Advanced Video Codec
Format profile : [email protected]
Format settings, CABAC : Yes
Format settings, ReFrames : 2 frames
Format settings, GOP : M=1, N=12
Codec ID : V_MPEG4/ISO/AVC
Duration : 1 h 37 min
Bit rate mode : Constant
Bit rate : 932 kb/s
Width : 720 pixels
Height : 304 pixels
Display aspect ratio : 2.35:1
Frame rate mode : Constant
Frame rate : 23.976 FPS
Color space : YUV
Chroma subsampling : 4:2:0
Bit depth : 8 bits
Scan type : Progressive
Bits/(Pixel*Frame) : 0.178
Stream size : 633 MiB (81%)
Title : ☻rDX☻
Default : Yes
Forced : No

Audio
ID : 1
Format : AC-3
Format/Info : Audio Coding 3
Mode extension : CM (complete main)
Format settings, Endianness : Big
Codec ID : A_AC3
Duration : 1 h 37 min
Bit rate mode : Constant
Bit rate : 192 kb/s
Channel(s) : 6 channels
Channel positions : Front: L C R, Side: L R, LFE
Sampling rate : 48.0 kHz
Frame rate : 31.250 FPS (1536 spf)
Bit depth : 16 bits
Compression mode : Lossy
Stream size : 134 MiB (17%)
Title : ☻rDX☻
Default : Yes
Forced : No

https://www.imdb.com/title/tt4782322

Related Torrents

Tracker name
udp://tracker.coppersurfer.tk:6969/announce
udp://tracker.leechers-paradise.org:6969/announce
udp://tracker.pirateparty.gr:6969/announce
udp://eddie4.nl:6969/announce
udp://tracker.zer0day.to:1337/announce
udp://9.rarbg.me:2710/announce
udp://9.rarbg.to:2710/announce
udp://public.popcorn-tracker.org:6969/announce
udp://p4p.arenabg.ch:1337/announce
udp://tracker.vanitycore.co:6969/announce
udp://ipv4.tracker.harry.lu:80/announce
udp://tracker.opentrackr.org:1337/announce
udp://p4p.arenabg.com:1337/announce
udp://shadowshq.yi.org:6969/announce
udp://tracker.zer0day.to:1337/announce
udp://tracker.leechers-paradise.org:6969/announce
udp://coppersurfer.tk:6969/announce
Torrent hash: CCF209E3541537EAF8552B7674474D8B1A060D5B

0 Comment

Login to post comments