Fleetwood Mac - Bare Trees (1972) (PBTHAL LP 24-96) [FLAC] vtwin88cube


0

0
seeders: 49 leechers: 13 updated: 14 hours ago
Added 2 days ago in Music - Lossless
Downloaded 5 times.
Fleetwood Mac - Bare Trees (1972) (PBTHAL LP 24-96) [FLAC] vtwin88cube

Files

00.-Fleetwood Mac - Bare Trees.m3u (746.1 MB)
00.-Fleetwood Mac - Bare Trees.m3u 307 B
01.-Child Of Mine.flac 111.4 MB
02.-The Ghost.flac 82.5 MB
03.-Homeward Bound.flac 68.5 MB
04.-Sunny Side Of Heaven.flac 63 MB
05.-Bare Trees.flac 102.7 MB
06.-Sentimental Lady.flac 92.3 MB
07.-Danny's Chant.flac 65.1 MB
08.-Spare Me A Little Of Your Love.flac 76.2 MB
09.-Dust.flac 53.4 MB
10.-Thoughts On A Grey Day.flac 31 MB
DR12.txt 1.3 KB
folder.jpg 148.3 KB
lineage.txt 512 B

Description

Fleetwood Mac
Bare Trees (1972)
FLAC LOSSLESS 24bit-96kHz
PBTHAL Vinyl Rip


allmusic.com...

Arguably the first consistently strong album Fleetwood Mac ever recorded -- all the way back into the Peter Green/Jeremy Spencer era, the Mac's albums had previously consisted of individual moments of brilliance in a sea of uninspired filler -- 1972's Bare Trees is also the album where the band finally defines its post-blues musical personality. Low-key but less narcoleptically mellow than 1971's sleepy Future Games, Bare Trees is a singer/songwriter album in the traditional early-'70s style, backed up with just enough musical muscle to keep from sounding like weedy soft rock in the manner of Bread or Cat Stevens.


foobar2000 1.4.3 / Dynamic Range Meter 1.1.1
log date: 2020-11-19 08:37:00

--------------------------------------------------------------------------------
Analyzed: Fleetwood Mac / Bare Trees
--------------------------------------------------------------------------------

DR Peak RMS Duration Track
--------------------------------------------------------------------------------
DR11 -1.52 dB -13.86 dB 5:30 01-Child Of Mine
DR11 -1.15 dB -14.48 dB 4:03 02-The Ghost
DR10 -0.96 dB -14.27 dB 3:25 03-Homeward Bound
DR11 -0.98 dB -15.73 dB 3:12 04-Sunny Side Of Heaven
DR12 -0.94 dB -14.84 dB 5:07 05-Bare Trees
DR11 -0.70 dB -16.46 dB 4:38 06-Sentimental Lady
DR11 -2.30 dB -15.49 dB 3:20 07-Danny's Chant
DR12 -1.12 dB -15.78 dB 3:49 08-Spare Me A Little Of Your Love
DR13 -2.77 dB -17.50 dB 2:44 09-Dust
DR14 -12.73 dB -29.61 dB 1:46 10-Thoughts On A Grey Day

Number of tracks: 10
Official DR value: DR12

Samplerate: 96000 Hz
Channels: 2
Bits per sample: 24
Bitrate: 2433 kbps
Codec: FLAC




Support the artists...
buy it if you like it!

Thanks for Seeding!
Cheers! ;)

Related Torrents

Tracker name
udp://tracker.openbittorrent.com:80/announce
udp://exodus.desync.com:6969/announce
udp://denis.stalker.upeer.me:6969/announce
udp://tracker.torrent.eu.org:451/announce
udp://tracker.coppersurfer.tk:6969/announce
udp://tracker.internetwarriors.net:1337/announce
udp://explodie.org:6969/announce
udp://tracker.leechers-paradise.org:6969/announce
http://tracker.opentrackr.org:1337/announce
udp://tracker.zer0day.to:1337/announce
udp://tracker.leechers-paradise.org:6969/announce
udp://coppersurfer.tk:6969/announce
Torrent hash: F929188EB4728BA749222F81135BE3FE452311CF

0 Comment

Login to post comments