Galveston (2018) 1080p H264 ita eng Ac3-5 1 sub ita eng-MIRCrew


0

0
seeders: 5 leechers: 5 updated: 3 days ago
Added 3 days ago in Movies - Highres Movies
Downloaded 1 time.
Galveston (2018) 1080p H264 ita eng Ac3-5 1 sub ita eng-MIRCrew
  • Release date: 19 Oct 2018
  • Release year: 2018
  • Runtime: 91 mintues
  • Country: USA
Plot:
A noirish crime thriller, Galveston centers on New Orleans hitman Roy Cady, diagnosed with lung cancer at 40. Before the cancer can do him in, however, he has more pressing concerns in the form of his mobster boss, who has decided to remove him from the business - and the world - via a set-up. Turning the tables, he goes on the run having rescued teenage hooker Raquel "Rocky" Arceneaux. He's persuaded to pick up her baby sister Tiffany, and with his new wards in tow, heads to his titular hometown to scheme revenge and redemption.

Available in versions:
DVD-Rip WEB-DL BDRip x264 x265 720p 1080p 2160p

Files

Galveston (2018).1080p.h264.ita.eng.sub.ita.eng-MIRCrew.eng.srt (2.2 GB)
Galveston (2018).1080p.h264.ita.eng.sub.ita.eng-MIRCrew.eng.srt 71.5 KB
Galveston (2018).1080p.h264.ita.eng.sub.ita.eng-MIRCrew.ita.srt 51.5 KB
Galveston (2018).1080p.h264.ita.eng.sub.ita.eng-MIRCrew.mkv 2.2 GB
Galveston (2018).1080p.h264.ita.eng.sub.ita.eng-MIRCrew.srt 102 B

Description

Galveston (2018).1080p.H264.ita.eng.Ac3-5.1.sub.ita.eng-MIRCrew


NO FOUND ONLY ORIGINAL RELEASE

My release is always in double track audio italian and Original audio
for select it use VLC or dvd player home
not use wmp

Galveston (2018)

Quality MIRCrew on HD 720p da 2,2 gb









Paese di produzione Stati Uniti d'America
Anno 2018
Durata 91 min
Rapporto 2,39:1
Genere azione, drammatico, thriller, poliziesco
Regia Mélanie Laurent
Soggetto dal romanzo di Nic Pizzolatto
Sceneggiatura Nic Pizzolatto



Ben Foster: Roy Cady
Elle Fanning: Raquel "Rocky" Arceneaux
Lili Reinhart: Tiffany
Robert Aramayo: Tray
Beau Bridges: Stan
Adepero Oduye: Loraine
María Valverde: Carmen
CK McFarland: Nancy
Michael Ray Escamilla: Angelo
Heidi Lewandowski: Dee
Rhonda Johnson Dents: Nonie



Roy Cady è un criminale al servizio del boss di New Orleans, Stan, a cui viene diagnosticato un cancro terminale ai polmoni. Inoltre, la ex ragazza di Roy è ora diventata la donna del suo capo, che vuole liberarsi di lui.



After escaping a set up, a dying hitman returns to his hometown of Galveston where he plans his revenge. .














General

Complete name : Galveston (2018).1080p.h264.ita.eng.sub.ita.eng-MIRCrew\Galveston (2018).1080p.h264.ita.eng.sub.ita.eng-MIRCrew.mkv
Format : Matroska
Format version : Version 2
File size : 2.21 GiB
Duration : 1h 33mn
Overall bit rate : 3 383 Kbps
Movie name : MIRCrew
Encoded date : UTC 2020-11-22T10:37:25Z
Writing application : mkvmerge v5.8.0 ('No Sleep / Pillow') built on Sep 2 2012 15:37:04
Writing library : Lavf55.12.0

Video
ID : 1
Format : AVC
Format/Info : Advanced Video Codec
Format profile : [email protected]
Format settings, CABAC : Yes
Format settings, ReFrames : 4 frames
Codec ID : V_MPEG4/ISO/AVC
Duration : 1h 33mn
Bit rate : 2 600 Kbps
Width : 1 920 pixels
Height : 800 pixels
Display aspect ratio : 2.40:1
Frame rate : 24.000 fps
Color space : YUV
Chroma subsampling : 4:2:0
Bit depth : 8 bits
Scan type : Progressive
Bits/(Pixel*Frame) : 0.071
Stream size : 1.62 GiB (73%)
Title : MIRCrew
Writing library : x264 core 142 r2479 dd79a61
Encoding settings : cabac=1 / ref=1 / deblock=1:0:0 / analyse=0x1:0x111 / me=hex / subme=2 / psy=1 / psy_rd=1.00:0.00 / mixed_ref=0 / me_range=16 / chroma_me=1 / trellis=0 / 8x8dct=0 / cqm=0 / deadzone=21,11 / fast_pskip=1 / chroma_qp_offset=0 / threads=9 / lookahead_threads=3 / sliced_threads=0 / nr=0 / decimate=1 / interlaced=0 / bluray_compat=0 / constrained_intra=0 / bframes=3 / b_pyramid=2 / b_adapt=1 / b_bias=0 / direct=1 / weightb=1 / open_gop=0 / weightp=1 / keyint=240 / keyint_min=24 / scenecut=40 / intra_refresh=0 / rc_lookahead=10 / rc=abr / mbtree=1 / bitrate=2600 / ratetol=1.0 / qcomp=0.60 / qpmin=0 / qpmax=69 / qpstep=4 / vbv_maxrate=50000 / vbv_bufsize=62500 / nal_hrd=none / filler=0 / ip_ratio=1.40 / aq=1:1.00
Language : Italian
Default : Yes
Forced : No
Color primaries : BT.709-5, BT.1361, IEC 61966-2-4, SMPTE RP177
Transfer characteristics : BT.709-5, BT.1361
Matrix coefficients : BT.709-5, BT.1361, IEC 61966-2-4 709, SMPTE RP177

Audio #1
ID : 2
Format : AC-3
Format/Info : Audio Coding 3
Mode extension : CM (complete main)
Codec ID : A_AC3
Duration : 1h 33mn
Bit rate mode : Constant
Bit rate : 448 Kbps
Channel(s) : 6 channels
Channel positions : Front: L C R, Side: L R, LFE
Sampling rate : 48.0 KHz
Bit depth : 16 bits
Compression mode : Lossy
Delay relative to video : -5ms
Stream size : 300 MiB (13%)
Title : Ita Ac3 5.1
Language : Italian
Default : Yes
Forced : No

Audio #2
ID : 3
Format : AC-3
Format/Info : Audio Coding 3
Mode extension : CM (complete main)
Codec ID : A_AC3
Duration : 1h 33mn
Bit rate mode : Constant
Bit rate : 384 Kbps
Channel(s) : 6 channels
Channel positions : Front: L C R, Side: L R, LFE
Sampling rate : 48.0 KHz
Bit depth : 16 bits
Compression mode : Lossy
Delay relative to video : -5ms
Stream size : 257 MiB (11%)
Title : Eng Ac3 5.1
Language : English
Default : No
Forced : No

Menu
00:00:00.000 : :Chapter 1
00:05:47.791 : :Chapter 2
00:10:47.541 : :Chapter 3
00:16:56.291 : :Chapter 4
00:23:17.708 : :Chapter 5
00:30:23.291 : :Chapter 6
00:35:43.791 : :Chapter 7
00:41:01.833 : :Chapter 8
00:47:51.541 : :Chapter 9
00:54:25.583 : :Chapter 10
01:03:36.083 : :Chapter 11
01:08:33.916 : :Chapter 12
01:12:25.333 : :Chapter 13
01:17:02.708 : :Chapter 14
01:21:33.583 : :Chapter 15
01:27:49.166 : :Chapter 16




Related Torrents

Tracker name
udp://tracker.torrent.eu.org:451/announce
udp://tracker.coppersurfer.tk:6969/announce
udp://tracker.torrent.eu.org:451/announce
udp://tracker.pirateparty.gr:6969/announce
udp://tracker.leechers-paradise.org:6969/announce
udp://tracker.cyberia.is:6969/announce
udp://tracker.iamhansen.xyz:2000/announce
udp://p4p.arenabg.com:1337/announce
udp://explodie.org:6969/announce
udp://tracker.opentrackr.org:1337/announce
udp://tracker.tiny-vps.com:6969/announce
udp://exodus.desync.com:6969/announce
udp://ipv4.tracker.harry.lu:80/announce
udp://open.stealth.si:80/announce
udp://tracker.zer0day.to:1337/announce
udp://tracker.leechers-paradise.org:6969/announce
udp://coppersurfer.tk:6969/announce
Torrent hash: E8377D7718005212FAD387C0E3A97EEEBA294EBE

0 Comment

Login to post comments