Ghatak Raat (2020) South Hindi Dubbed 720p HDRip x264 AAC


0

0
seeders: 69 leechers: 19 updated: 8 hours ago
Added 6 days ago in Movies - Dubbed Movies
Downloaded 8 times.
Ghatak Raat (2020) South Hindi Dubbed 720p HDRip x264 AAC

Files

Ghatak Raat (2020) South Hindi Dubbed 720p HDRip x264 AAC.mkv (815.9 MB)
Ghatak Raat (2020) South Hindi Dubbed 720p HDRip x264 AAC.mkv 815.9 MB

Description



Ghatak Raat (2020):
In an interior village deep in Karnataka, a fortune teller visits a poverty-stricken family
and tells them that their fortune is going to change overnight.

Director: Dayal Padmanabhan
Stars: Ashitha, Anupama Gowda, Swathi Gowda .

Format : Matroska
Format version : Version 4
File size : 816 MiB
Duration : 1 h 38 min
Overall bit rate : 1 157 kb/s

Video
ID : 1
Format : AVC
Format/Info : Advanced Video Codec
Format profile : [email protected]
Format settings : CABAC / 4 Ref Frames
Format settings, CABAC : Yes
Format settings, Reference frames : 4 frames
Codec ID : V_MPEG4/ISO/AVC
Duration : 1 h 38 min
Bit rate : 1 040 kb/s
Width : 1 280 pixels
Height : 544 pixels
Display aspect ratio : 2.35:1
Frame rate mode : Constant
Frame rate : 23.976 (24000/1001) FPS
Color space : YUV
Chroma subsampling : 4:2:0
Bit depth : 8 bits
Scan type : Progressive
Bits/(Pixel*Frame) : 0.062
Stream size : 726 MiB (89%)

Audio
ID : 2
Format : AAC LC
Format/Info : Advanced Audio Codec Low Complexity
Codec ID : A_AAC-2
Duration : 1 h 38 min
Bit rate : 126 kb/s
Channel(s) : 2 channels
Channel layout : L R
Sampling rate : 44.1 kHz
Frame rate : 43.066 FPS (1024 SPF)
Compression mode : Lossy
Stream size : 88.5 MiB (11%)
Language : Hindi

Tracker name
udp://exodus.desync.com:6969/announce
udp://explodie.org:6969/announce
udp://tracker.tiny-vps.com:6969/announce
udp://tracker.torrent.eu.org:451/announce
udp://ipv4.tracker.harry.lu:80/announce
http://explodie.org:6969/announce
http://tracker.opentrackr.org:1337/announce
udp://9.rarbg.to:2800/announce
http://tracker3.itzmx.com:6961/announce
http://tracker1.itzmx.com:8080/announce
http://t.nyaatracker.com:80/announce
udp://open.stealth.si:80/announce
UDP://TRACKER.COPPERSURFER.TK:6969/ANNOUNCE
UDP://TRACKER.OPENTRACKR.ORG:1337/ANNOUNCE
udp://tracker.zer0day.to:1337/announce
udp://tracker.leechers-paradise.org:6969/announce
udp://coppersurfer.tk:6969/announce
Torrent hash: FDBED423C99D0026EA3CAF86E4B975022E76CBFE

0 Comment

Login to post comments