Green Book (2018) 720p H264 italian english Ac3-5 1 sub ita eng-MIRCrew


0

0
seeders: 120 leechers: 15 updated: 1 year ago
Added 1 year ago in Movies - Highres Movies
Downloaded 19 times.
Green Book (2018) 720p H264 italian english Ac3-5 1 sub ita eng-MIRCrew
  • Release date: 16 Nov 2018
  • Release year: 2018
  • Runtime: 130 mintues
  • Country: USA, China
  • Budget: $23,000,000
Plot:
In 1962, Tony "Tony Lip" Vallelonga, a tough bouncer, is looking for work when his nightclub is closed for renovations. The most promising offer turns out to be the driver for the African-American classical pianist Don Shirley for a concert tour into the Deep South states. Although hardly enthused at working for a black man, Tony accepts the job and they begin their trek armed with The Negro Motorist Green Book, a travel guide for safe travel through America's racial segregation. Together, the snobbishly erudite pianist and the crudely practical bouncer can barely get along with their clashing attitudes to life and ideals. However, as the disparate pair witness and endure America's appalling injustices on the road, they find a newfound respect for each other's talents and start to face them together. In doing so, they would nurture a friendship and understanding that would change both their lives.

Files

Green Book (2018).720p.h264.ita.eng.sub.ita.eng-MIRCrew.eng.srt (2.5 GB)
Green Book (2018).720p.h264.ita.eng.sub.ita.eng-MIRCrew.eng.srt 125 KB
Green Book (2018).720p.h264.ita.eng.sub.ita.eng-MIRCrew.ita.srt 123.3 KB
Green Book (2018).720p.h264.ita.eng.sub.ita.eng-MIRCrew.mkv 2.5 GB
Green Book (2018).720p.h264.ita.eng.sub.ita.eng-MIRCrew.srt 2 KB

Description

Green Book (2018).720p.H264.italian.english.Ac3-5.1.sub.ita.eng-MIRCrew


NO FOUND ONLY ORIGINAL RELEASE

My release is always in double track audio italian and Original audio
for select it use VLC or dvd player home
not use wmp

Green Book (2018)

Quality MIRCrew on HD 720p da 2,6 gb









2019 - Premio Oscar

Miglior film a Jim Burke, Brian Hayes Currie, Peter Farrelly, Nick Vallelonga, Charles B. Wessler
Migliore attore non protagonista a Mahershala Ali
Migliore sceneggiatura originale a Nick Vallelonga, Brian Currie e Peter Farrelly
Candidatura per il migliore attore protagonista a Viggo Mortensen
Candidatura per il miglior montaggio a Patrick J. Don Vito

2019 - Golden Globe

Miglior film commedia o musicale
Miglior attore non protagonista a Mahershala Ali
Migliore sceneggiatura a Brian Hayes, Peter Farrelly e Nick Vallelonga
Candidatura per il migliore attore in un film commedia o musicale a Viggo Mortensen
Candidatura per il miglior regista a Peter Farrelly

2018 - Toronto International Film Festival

Titolo originale Green Book
Lingua originale inglese, italiano
Paese di produzione Stati Uniti d'America
Anno 2018
Durata 130 min
Rapporto 1.85:1
Genere biografico, commedia, drammatico, musicale
Regia Peter Farrelly
Sceneggiatura Brian Hayes Currie, Peter Farrelly, Nick Vallelonga



Viggo Mortensen: Frank "Tony Lip" Vallelonga
Mahershala Ali: Don Shirley
Linda Cardellini: Dolores Vallelonga
Mike Hatton: George
Don Stark: Jules Podell
Sebastian Maniscalco: Johnny Venere
P. J. Byrne: produttore discografico
Brian Stepanek: Graham Kindell
Iqbal Theba: Amit
Dimiter D. Marinov: Oleg



Nel 1962, dopo la chiusura temporanea per restauri del Copacabana, uno dei migliori club di New York in cui lavorava, il buttafuori italoamericano Tony Vallelonga, detto Tony Lip per la sua capacità oratoria, deve a tutti i costi trovare un lavoro per mantenere la sua famiglia. Accetta così di lavorare per il pianista afroamericano Don Shirley e fargli da autista e tuttofare in un tour nel sud degli Stati Uniti



A working-class Italian-American bouncer becomes the driver of an African-American classical pianist on a tour of venues through the 1960s American South.





General
Unique ID : 184031065418011724255173943426388471014 (0x8A73180DABC93F00B9685D0641022CE6)
Complete name : Green Book (2018).720p.h264.ita.eng.sub.ita.eng-MIRCrew\Green Book (2018).720p.h264.ita.eng.sub.ita.eng-MIRCrew.mkv
Format : Matroska
Format version : Version 2
File size : 2.52 GiB
Duration : 2h 10mn
Overall bit rate : 2 775 Kbps
Movie name : MIRCrew
Encoded date : UTC 2019-04-27 08:50:09
Writing application : mkvmerge v5.8.0 ('No Sleep / Pillow') built on Sep 2 2012 15:37:04
Writing library : Lavf54.63.100
COMMENT : mircrew-releases

Video
ID : 1
Format : AVC
Format/Info : Advanced Video Codec
Format profile : [email protected]
Format settings, CABAC : Yes
Format settings, ReFrames : 2 frames
Codec ID : V_MPEG4/ISO/AVC
Duration : 2h 10mn
Bit rate : 1 900 Kbps
Width : 1 280 pixels
Height : 640 pixels
Display aspect ratio : 2.000
Frame rate mode : Variable
Frame rate : 23.976 fps
Color space : YUV
Chroma subsampling : 4:2:0
Bit depth : 8 bits
Scan type : Progressive
Bits/(Pixel*Frame) : 0.097
Stream size : 1.66 GiB (66%)
Title : MIRCrew
Writing library : x264 core 130 r2273
Encoding settings : cabac=1 / ref=2 / deblock=1:0:0 / analyse=0x1:0x131 / me=hex / subme=7 / psy=1 / psy_rd=1.00:0.00 / mixed_ref=0 / me_range=16 / chroma_me=1 / trellis=1 / 8x8dct=0 / cqm=0 / deadzone=21,11 / fast_pskip=1 / chroma_qp_offset=-2 / threads=9 / lookahead_threads=1 / sliced_threads=0 / nr=0 / decimate=1 / interlaced=0 / bluray_compat=0 / constrained_intra=0 / bframes=3 / b_pyramid=0 / b_adapt=1 / b_bias=0 / direct=3 / weightb=1 / open_gop=0 / weightp=2 / keyint=230 / keyint_min=23 / scenecut=40 / intra_refresh=0 / rc_lookahead=40 / rc=abr / mbtree=1 / bitrate=1900 / ratetol=1.0 / qcomp=0.60 / qpmin=10 / qpmax=69 / qpstep=4 / vbv_maxrate=24000 / vbv_bufsize=24000 / nal_hrd=none / ip_ratio=1.40 / aq=1:1.00
Language : Italian
Default : Yes
Forced : No
DURATION : 02:10:04.797000000
NUMBER_OF_FRAMES : 187128
NUMBER_OF_BYTES : 18397537990
_STATISTICS_WRITING_APP : mkvmerge v32.0.0 ('Astral Progressions') 64-bit
_STATISTICS_WRITING_DATE_UTC : 2019-04-27 08:50:09
_STATISTICS_TAGS : BPS DURATION NUMBER_OF_FRAMES NUMBER_OF_BYTES

Audio #1
ID : 2
Format : AC-3
Format/Info : Audio Coding 3
Mode extension : CM (complete main)
Codec ID : A_AC3
Duration : 2h 10mn
Bit rate mode : Constant
Bit rate : 448 Kbps
Channel(s) : 6 channels
Channel positions : Front: L C R, Side: L R, LFE
Sampling rate : 48.0 KHz
Bit depth : 16 bits
Compression mode : Lossy
Delay relative to video : -5ms
Stream size : 417 MiB (16%)
Title : Ita Ac3 5.1
Language : Italian
Default : Yes
Forced : Yes
DURATION : 02:10:04.864000000
NUMBER_OF_FRAMES : 243902
NUMBER_OF_BYTES : 624389120
_STATISTICS_WRITING_APP : mkvmerge v32.0.0 ('Astral Progressions') 64-bit
_STATISTICS_WRITING_DATE_UTC : 2019-04-27 08:50:09
_STATISTICS_TAGS : BPS DURATION NUMBER_OF_FRAMES NUMBER_OF_BYTES

Audio #2
ID : 3
Format : AC-3
Format/Info : Audio Coding 3
Mode extension : CM (complete main)
Codec ID : A_AC3
Duration : 2h 10mn
Bit rate mode : Constant
Bit rate : 448 Kbps
Channel(s) : 6 channels
Channel positions : Front: L C R, Side: L R, LFE
Sampling rate : 48.0 KHz
Bit depth : 16 bits
Compression mode : Lossy
Delay relative to video : -5ms
Stream size : 417 MiB (16%)
Title : Eng Ac3 5.1
Language : English
Default : No
Forced : No
DURATION : 02:10:04.800000000
NUMBER_OF_FRAMES : 243900
NUMBER_OF_BYTES : 624384000
_STATISTICS_WRITING_APP : mkvmerge v32.0.0 ('Astral Progressions') 64-bit
_STATISTICS_WRITING_DATE_UTC : 2019-04-27 08:50:09
_STATISTICS_TAGS : BPS DURATION NUMBER_OF_FRAMES NUMBER_OF_BYTES

Menu
00:00:00.000 : :Chapter 01
00:05:43.009 : :Chapter 02
00:11:50.043 : :Chapter 03
00:18:17.805 : :Chapter 04
00:23:46.675 : :Chapter 05
00:28:37.382 : :Chapter 06
00:34:38.785 : :Chapter 07
00:41:13.304 : :Chapter 08
00:46:44.593 : :Chapter 09
00:54:19.173 : :Chapter 10
01:02:42.342 : :Chapter 11
01:10:42.655 : :Chapter 12
01:16:16.155 : :Chapter 13
01:24:30.274 : :Chapter 14
01:30:37.724 : :Chapter 15
01:36:53.266 : :Chapter 16
01:44:56.081 : :Chapter 17
01:51:12.124 : :Chapter 18
01:54:38.872 : :Chapter 19
02:02:25.505 : :Chapter 20

Related Torrents

Tracker name
udp://tracker.coppersurfer.tk:6969/announce
udp://tracker.torrent.eu.org:451/announce
udp://tracker.pirateparty.gr:6969/announce
udp://tracker.opentrackr.org:1337/announce
udp://tracker.leechers-paradise.org:6969/announce
udp://tracker.eddie4.nl:6969/announce
udp://shadowshq.yi.org:6969/announce
udp://shadowshq.eddie4.nl:6969/announce
udp://inferno.demonoid.pw:3391/announce
udp://eddie4.nl:6969/announce
udp://9.rarbg.to:2730/announce
udp://9.rarbg.com:2710/announce
udp://9.rarbg.me:2780/announce
udp://62.138.0.158:6969/announce
udp://151.80.120.114:2710/announce
Torrent hash: 6EC5F27F3B2556B76143B91E77AD422EB105DEF0

0 Comment

Login to post comments