Haunt - La casa del terrore (2019) 1080p H264 ita eng Ac3-5 1 sub ita-MIRCrew


0

0
seeders: 3 leechers: 56 updated: 3 days ago
Added 3 days ago in Movies - Highres Movies
Downloaded 0 time.
Haunt - La casa del terrore (2019) 1080p H264 ita eng Ac3-5 1 sub ita-MIRCrew
Plot:
On Halloween, a group of friends encounter an "extreme" haunted house that promises to feed on their darkest fears. The night turns deadly as they come to the horrifying realization that some nightmares are real.

Available in versions:
DVD-Rip WEB-DL BDRip x264 x265 720p 1080p Unknown

Files

La casa del terrore - Haunt (2019).1080p.h264.ita.eng.sub.ita-MIRCrew (2.2 GB)
La casa del terrore - Haunt (2019).1080p.h264.ita.eng.sub.ita-MIRCrew.ita.srt 78.14 KB
La casa del terrore - Haunt (2019).1080p.h264.ita.eng.sub.ita-MIRCrew.mkv 2.2 GB
La casa del terrore - Haunt (2019).1080p.h264.ita.eng.sub.ita-MIRCrew.srt 1.1 KB

Description

La casa del terrore - Haunt (2019).1080p.H264.ita.eng.Ac3-5.1.sub.ita-MIRCrew


NO FOUND ONLY ORIGINAL RELEASE


My release is always in double track audio italian and Original audio
for select it use VLC or dvd player home
not use wmp

La casa del terrore - Haunt (2019)

Quality MIRCrew on HD 1080p da 2,2 gb









Genere: Horror , Thriller
Anno: 2019
Regia: Scott Beck, Bryan Woods
Paese: USA
Durata: 92 Min



Will Brittain, Katie Stevens, Lauryn Alisa McClain, Andrew Caldwell, Shazi Raja, Schuyler Helford, Phillip Johnson Richardson, Justin Marxen, Terri Partyka, Damian Maffei, Brent Geisler, Karli Hall, Schuyler White, Samuel Hunt



Ad Halloween un gruppo di amici decide di recarsi in una casa stregata che promette di alimentarsi delle loro più oscure paure. La notte si trasformerà in un incubo quando gli amici capiranno che alcuni di quegli incubi sono reali



On Halloween, a group of friends encounter an "extreme" haunted house that promises to feed on their darkest fears. The night turns deadly as they come to the horrifying realization that some nightmares are real.
















General

Complete name : La casa del terrore - Haunt (2019).1080p.h264.ita.eng.sub.ita-MIRCrew\La casa del terrore - Haunt (2019).1080p.h264.ita.eng.sub.ita-MIRCrew.mkv
Format : Matroska
Format version : Version 2
File size : 2.20 GiB
Duration : 1h 32mn
Overall bit rate : 3 402 Kbps
Movie name : MIRCrew
Encoded date : UTC 2020-11-07T16:55:40Z
Writing application : mkvmerge v5.8.0 ('No Sleep / Pillow') built on Sep 2 2012 15:37:04
Writing library : Lavf55.12.0

Video
ID : 1
Format : AVC
Format/Info : Advanced Video Codec
Format profile : [email protected]
Format settings, CABAC : Yes
Format settings, ReFrames : 4 frames
Codec ID : V_MPEG4/ISO/AVC
Duration : 1h 32mn
Bit rate : 2 600 Kbps
Width : 1 920 pixels
Height : 848 pixels
Display aspect ratio : 2.25:1
Frame rate mode : Variable
Frame rate : 24.000 fps
Color space : YUV
Chroma subsampling : 4:2:0
Bit depth : 8 bits
Scan type : Progressive
Bits/(Pixel*Frame) : 0.067
Stream size : 1.61 GiB (74%)
Title : MIRCrew
Writing library : x264 core 142 r2479 dd79a61
Encoding settings : cabac=1 / ref=1 / deblock=1:0:0 / analyse=0x1:0x111 / me=hex / subme=2 / psy=1 / psy_rd=1.00:0.00 / mixed_ref=0 / me_range=16 / chroma_me=1 / trellis=0 / 8x8dct=0 / cqm=0 / deadzone=21,11 / fast_pskip=1 / chroma_qp_offset=0 / threads=9 / lookahead_threads=3 / sliced_threads=0 / nr=0 / decimate=1 / interlaced=0 / bluray_compat=0 / constrained_intra=0 / bframes=3 / b_pyramid=2 / b_adapt=1 / b_bias=0 / direct=1 / weightb=1 / open_gop=0 / weightp=1 / keyint=240 / keyint_min=24 / scenecut=40 / intra_refresh=0 / rc_lookahead=10 / rc=abr / mbtree=1 / bitrate=2600 / ratetol=1.0 / qcomp=0.60 / qpmin=0 / qpmax=69 / qpstep=4 / vbv_maxrate=50000 / vbv_bufsize=62500 / nal_hrd=none / filler=0 / ip_ratio=1.40 / aq=1:1.00
Language : Italian
Default : Yes
Forced : No
Color primaries : BT.709-5, BT.1361, IEC 61966-2-4, SMPTE RP177
Transfer characteristics : BT.709-5, BT.1361
Matrix coefficients : BT.709-5, BT.1361, IEC 61966-2-4 709, SMPTE RP177

Audio #1
ID : 2
Format : AC-3
Format/Info : Audio Coding 3
Mode extension : CM (complete main)
Codec ID : A_AC3
Duration : 1h 32mn
Bit rate mode : Constant
Bit rate : 448 Kbps
Channel(s) : 6 channels
Channel positions : Front: L C R, Side: L R, LFE
Sampling rate : 48.0 KHz
Bit depth : 16 bits
Compression mode : Lossy
Delay relative to video : -5ms
Stream size : 296 MiB (13%)
Title : Ita Ac3 5.1
Language : Italian
Default : Yes
Forced : No

Audio #2
ID : 3
Format : AC-3
Format/Info : Audio Coding 3
Mode extension : CM (complete main)
Codec ID : A_AC3
Duration : 1h 32mn
Bit rate mode : Constant
Bit rate : 384 Kbps
Channel(s) : 6 channels
Channel positions : Front: L C R, Side: L R, LFE
Sampling rate : 48.0 KHz
Bit depth : 16 bits
Compression mode : Lossy
Delay relative to video : -5ms
Stream size : 254 MiB (11%)
Title : Eng Ac3 5.1
Language : English
Default : No
Forced : No

Menu
00:00:00.000 : :Глава 01
00:08:05.833 : :Глава 02
00:16:49.416 : :Глава 03
00:25:24.625 : :Глава 04
00:33:27.500 : :Глава 05
00:43:06.000 : :Глава 06
00:50:57.458 : :Глава 07
00:58:12.583 : :Глава 08
01:06:10.083 : :Глава 09
01:12:57.625 : :Глава 10
01:19:10.041 : :Глава 11
01:26:18.333 : :Глава 12



Related Torrents

Tracker name
udp://tracker.torrent.eu.org:451/announce
udp://tracker.coppersurfer.tk:6969/announce
udp://tracker.torrent.eu.org:451/announce
udp://tracker.pirateparty.gr:6969/announce
udp://tracker.leechers-paradise.org:6969/announce
udp://tracker.cyberia.is:6969/announce
udp://tracker.iamhansen.xyz:2000/announce
udp://p4p.arenabg.com:1337/announce
udp://explodie.org:6969/announce
udp://tracker.opentrackr.org:1337/announce
udp://tracker.tiny-vps.com:6969/announce
udp://exodus.desync.com:6969/announce
udp://ipv4.tracker.harry.lu:80/announce
udp://open.stealth.si:80/announce
udp://9.rarbg.to:2710/announce
Torrent hash: 822275E91ADBBCBB5B58A19944B1B130E5B58B72

0 Comment

Login to post comments