High Life (2020) ITA-ENG Ac3 5 1 BDRip 1080p H264 [ArMor]


0

0
seeders: 2 leechers: 23 updated: 3 days ago
Added 3 days ago in Movies - Highres Movies
Downloaded 4 times.
High Life (2020) ITA-ENG Ac3 5 1 BDRip 1080p H264 [ArMor]
  • Release date: 12 Apr 2019
  • Release year: 2019
  • Runtime: 113 mintues
  • Country: France, UK, Germany, Poland, USA
Plot:
Takes place beyond the solar system in a future that seems like the present. About a group of criminals who accept a mission in space to become the subjects of a human reproduction experiment. They find themselves in the most unimaginable situation after a storm of cosmic rays hit the ship.

Available in versions:
BDRip x264 x265 720p 1080p Unknown

Files

High Life (2020) ITA-ENG Ac3 5.1 BDRip 1080p H264 [ArMor].mkv (4.5 GB)
High Life (2020) ITA-ENG Ac3 5.1 BDRip 1080p H264 [ArMor].mkv 4.5 GB
High.Life.2020.Bd-1_track4_ita.sup 562.2 KB
High.Life.2020.Bd-1_track5_ita.sup 5.1 MB
dffxxfcfdsew54456.jpg 109 KB

Description







Regista: Claire Denis
Genere: Avventura, Drammatico, Horror, Fantascienza
Anno: 2018
Paese: Germania, Francia, Gran Bretagna, Polonia, USA
Durata: 113 min
Data di uscita: 06 agosto 2020
Distribuzione: Movies Inspired



Robert Pattinson, Juliette Binoche, André Benjamin, Mia Goth, Lars Eidinger, Agata Buzek, Claire Tran, Ewan Mitchell, Gloria Obianyo, Jessie Ross, Victor Banerjee



High Life, il film diretto da Claire Denis, racconta la storia di un padre, Monte (Robert Pattinson), e di una figlia Willow (Jessie Ross), che vivono in totale isolamento a bordo di una stazione spaziale, unici sopravvissuti di una colonia di ex detenuti, spediti come cavie in un viaggio spaziale verso il buco nero più vicino alla Terra.



A father and his daughter struggle to survive in deep space where they live in isolation.












General
Unique ID : 188609194382410196062106608593826826411 (0x8DE4CF3D042721DAA2C248790BC548AB)
Complete name : High Life (2020) ITA-ENG Ac3 5.1 BDRip 1080p H264 [ArMor].mkv
Format : Matroska
Format version : Version 4
File size : 4.46 GiB
Duration : 1 h 52 min
Overall bit rate : 5 664 kb/s
Encoded date : UTC 2020-11-21 16:52:39
Writing application : mkvmerge v15.0.0 ('Duel with the Devil') 64-bit
Writing library : libebml v1.3.5 + libmatroska v1.4.5 / Lavf58.29.100

Video
ID : 1
Format : AVC
Format/Info : Advanced Video Codec
Format profile : [email protected]
Format settings : CABAC / 4 Ref Frames
Format settings, CABAC : Yes
Format settings, Reference frames : 4 frames
Codec ID : V_MPEG4/ISO/AVC
Duration : 1 h 52 min
Bit rate : 5 000 kb/s
Width : 1 728 pixels
Height : 1 040 pixels
Display aspect ratio : 5:3
Frame rate mode : Constant
Frame rate : 24.000 FPS
Color space : YUV
Chroma subsampling : 4:2:0
Bit depth : 8 bits
Scan type : Progressive
Bits/(Pixel*Frame) : 0.116
Stream size : 3.75 GiB (84%)
Writing library : x264 core 157 r2935 545de2f
Encoding settings : cabac=1 / ref=2 / deblock=1:0:0 / analyse=0x1:0x111 / me=hex / subme=6 / psy=1 / psy_rd=1.00:0.00 / mixed_ref=1 / me_range=16 / chroma_me=1 / trellis=1 / 8x8dct=0 / cqm=0 / deadzone=21,11 / fast_pskip=1 / chroma_qp_offset=-2 / threads=18 / lookahead_threads=3 / sliced_threads=0 / nr=0 / decimate=1 / interlaced=0 / bluray_compat=0 / constrained_intra=0 / bframes=3 / b_pyramid=2 / b_adapt=1 / b_bias=0 / direct=1 / weightb=1 / open_gop=0 / weightp=1 / keyint=240 / keyint_min=24 / scenecut=40 / intra_refresh=0 / rc_lookahead=30 / rc=abr / mbtree=1 / bitrate=5000 / ratetol=1.0 / qcomp=0.60 / qpmin=0 / qpmax=69 / qpstep=4 / vbv_maxrate=20000 / vbv_bufsize=25000 / nal_hrd=none / filler=0 / ip_ratio=1.40 / aq=1:1.00
Default : Yes
Forced : No
Color range : Limited
Color primaries : BT.709
Transfer characteristics : BT.709
Matrix coefficients : BT.709

Audio #1
ID : 2
Format : AC-3
Format/Info : Audio Coding 3
Commercial name : Dolby Digital
Codec ID : A_AC3
Duration : 1 h 52 min
Bit rate mode : Constant
Bit rate : 448 kb/s
Channel(s) : 6 channels
Channel layout : L R C LFE Ls Rs
Sampling rate : 48.0 kHz
Frame rate : 31.250 FPS (1536 SPF)
Compression mode : Lossy
Stream size : 361 MiB (8%)
Title : Surround
Language : Italian
Service kind : Complete Main
Default : Yes
Forced : No

Audio #2
ID : 3
Format : AC-3
Format/Info : Audio Coding 3
Commercial name : Dolby Digital
Codec ID : A_AC3
Duration : 1 h 52 min
Bit rate mode : Constant
Bit rate : 448 kb/s
Channel(s) : 6 channels
Channel layout : L R C LFE Ls Rs
Sampling rate : 48.0 kHz
Frame rate : 31.250 FPS (1536 SPF)
Compression mode : Lossy
Stream size : 361 MiB (8%)
Title : Surround
Language : English
Service kind : Complete Main
Default : No
Forced : No

Menu
00:00:00.000 : :Chapter 1
00:09:20.208 : :Chapter 2
00:18:12.917 : :Chapter 3
00:26:19.167 : :Chapter 4
00:35:05.292 : :Chapter 5
00:43:00.333 : :Chapter 6
00:51:27.417 : :Chapter 7
01:02:01.583 : :Chapter 8
01:14:57.875 : :Chapter 9
01:25:43.667 : :Chapter 10
01:36:28.250 : :Chapter 11
01:44:14.917 : :Chapter 12





Related Torrents

Tracker name
udp://tracker.coppersurfer.tk:6969/announce
udp://tracker.leechers-paradise.org:6969/announce
udp://9.rarbg.to:2710/announce
udp://exodus.desync.com:6969/announce
udp://tracker.uw0.xyz:6969/announce
udp://open.stealth.si:80/announce
udp://tracker.tiny-vps.com:6969/announce
udp://open.demonii.si:1337/announce
udp://tracker.cyberia.is:6969/announce
udp://tracker.kamigami.org:2710/announce
udp://opentor.org:2710/announce[/fo
udp://opentracker.i2p.rocks:6969/announce
udp://tracker.zerobytes.xyz:1337/announce
udp://aaa.army:8866/announce
udp://tracker.zer0day.to:1337/announce
udp://tracker.leechers-paradise.org:6969/announce
udp://coppersurfer.tk:6969/announce
Torrent hash: BAA0D4F43C9CCAD9AA1C6B2799E49B337E754BF6

0 Comment

Login to post comments