Hostages-Zalozhniki (2017) ITA-GEO Ac3 5 1 BDRip 1080p H264 [ArMor]


0

0
seeders: 1 leechers: 7 updated: 1 month ago
Added 1 month ago in Movies - Highres Movies
Downloaded 0 time.
Hostages-Zalozhniki (2017) ITA-GEO Ac3 5 1 BDRip 1080p H264 [ArMor]
Plot:
The movie describes real events that took place in 1983, when seven young Georgians, all from intellectual elite families, attempted to flee the Soviet Union by hijacking an airliner. The crisis ended with a storming of the airliner by Soviet special forces that resulted in eight dead. The surviving hijackers were subsequently tried and executed.

Available in versions:
BDRip

Files

Hostages.2017.ITA-GEO.Bluray.1080p_ita_forced.srt (3.4 GB)
Hostages.2017.ITA-GEO.Bluray.1080p_ita_forced.srt 614 B
jyswr6u4.jpg 81.7 KB
Hostages-Zalozhniki (2017) ITA-GEO Ac3 5.1 BDRip 1080p H264 [ArMor].mkv 3.4 GB

Description





Prima data di uscita: 20 aprile 2017 (Georgia)
Regista: Rezo Gigineishvili
Produttori: Rezo Gigineishvili, Tamara Tatishvili, Mikhail Finogenov, Vova Kacharava


Plot: Il film descrive eventi reali accaduti nel 1983, quando sette giovani georgiani, tutti appartenenti a famiglie di élite intellettuale, tentarono di fuggire dall'Unione Sovietica dirottando un aereo di linea. La crisi si è conclusa con un assalto dell'aereo di linea da parte delle forze speciali sovietiche che ha provocato otto morti. I dirottatori sopravvissuti furono successivamente processati ed giustiziati.

The movie describes real events that took place in 1983, when seven young Georgians, all from intellectual elite families, attempted to flee the Soviet Union by hijacking an airliner. The crisis ended with a storming of the airliner by Soviet special forces that resulted in eight dead. The surviving hijackers were subsequently tried and executed.










General
Unique ID : 223610457127803186308464030278100380248 (0xA839CEBA070EC5E681C84284D2C2EA58)
Complete name : Hostages-Zalozhniki (2017) ITA-GEO Ac3 5.1 BDRip 1080p H264 [ArMor].mkv
Format : Matroska
Format version : Version 4
File size : 3.42 GiB
Duration : 1 h 43 min
Overall bit rate : 4 721 kb/s
Encoded date : UTC 2020-08-04 23:04:11
Writing application : mkvmerge v15.0.0 ('Duel with the Devil') 64-bit
Writing library : libebml v1.3.5 + libmatroska v1.4.5 / Lavf58.29.100

Video
ID : 1
Format : AVC
Format/Info : Advanced Video Codec
Format profile : [email protected]
Format settings : CABAC / 4 Ref Frames
Format settings, CABAC : Yes
Format settings, Reference frames : 4 frames
Codec ID : V_MPEG4/ISO/AVC
Duration : 1 h 43 min
Bit rate : 4 000 kb/s
Width : 1 918 pixels
Height : 720 pixels
Display aspect ratio : 2.664
Frame rate mode : Constant
Frame rate : 24.000 FPS
Color space : YUV
Chroma subsampling : 4:2:0
Bit depth : 8 bits
Scan type : Progressive
Bits/(Pixel*Frame) : 0.121
Stream size : 2.77 GiB (81%)
Writing library : x264 core 157 r2935 545de2f
Encoding settings : cabac=1 / ref=2 / deblock=1:0:0 / analyse=0x1:0x111 / me=hex / subme=6 / psy=1 / psy_rd=1.00:0.00 / mixed_ref=1 / me_range=16 / chroma_me=1 / trellis=1 / 8x8dct=0 / cqm=0 / deadzone=21,11 / fast_pskip=1 / chroma_qp_offset=-2 / threads=18 / lookahead_threads=3 / sliced_threads=0 / nr=0 / decimate=1 / interlaced=0 / bluray_compat=0 / constrained_intra=0 / bframes=3 / b_pyramid=2 / b_adapt=1 / b_bias=0 / direct=1 / weightb=1 / open_gop=0 / weightp=1 / keyint=240 / keyint_min=24 / scenecut=40 / intra_refresh=0 / rc_lookahead=30 / rc=abr / mbtree=1 / bitrate=4000 / ratetol=1.0 / qcomp=0.60 / qpmin=0 / qpmax=69 / qpstep=4 / vbv_maxrate=50000 / vbv_bufsize=62500 / nal_hrd=none / filler=0 / ip_ratio=1.40 / aq=1:1.00
Default : Yes
Forced : No
Color range : Limited
Color primaries : BT.709
Transfer characteristics : BT.709
Matrix coefficients : BT.709

Audio #1
ID : 2
Format : AC-3
Format/Info : Audio Coding 3
Commercial name : Dolby Digital
Codec ID : A_AC3
Duration : 1 h 43 min
Bit rate mode : Constant
Bit rate : 448 kb/s
Channel(s) : 6 channels
Channel layout : L R C LFE Ls Rs
Sampling rate : 48.0 kHz
Frame rate : 31.250 FPS (1536 SPF)
Compression mode : Lossy
Stream size : 333 MiB (9%)
Title : WEBDL EAC3
Language : Italian
Service kind : Complete Main
Default : Yes
Forced : No

Audio #2
ID : 3
Format : AC-3
Format/Info : Audio Coding 3
Commercial name : Dolby Digital
Codec ID : A_AC3
Duration : 1 h 43 min
Bit rate mode : Constant
Bit rate : 448 kb/s
Channel(s) : 6 channels
Channel layout : L R C LFE Ls Rs
Sampling rate : 48.0 kHz
Frame rate : 31.250 FPS (1536 SPF)
Compression mode : Lossy
Stream size : 333 MiB (9%)
Title : DTS
Language : Georgian
Service kind : Complete Main
Default : No
Forced : No


Tracker name
udp://tracker.coppersurfer.tk:6969/announce
udp://tracker.opentrackr.org:1337/announce
udp://tracker.leechers-paradise.org:6969/announce
udp://tracker.zer0day.to:1337/announce
udp://eddie4.nl:6969/announce
udp://9.rarbg.me:2790/announce
udp://9.rarbg.to:2730/announce
udp://9.rarbg.com:2710/announce
udp://tracker.pirateparty.gr:6969/announce
udp://p4p.arenabg.com:1337/announce
http://ipv4.tracker.harry.lu/announce
http://ipv4.tracker.harry.lu:80/announce
http://t.nyaatracker.com/announce
http://t.nyaatracker.com:80/announce
udp://tracker.zer0day.to:1337/announce
udp://tracker.leechers-paradise.org:6969/announce
udp://coppersurfer.tk:6969/announce
Torrent hash: 97DD0E35F471AD092D818C51538F1BEA5C2BF255

0 Comment

Login to post comments