Il talento del calabrone (2020) 1080p H264 ita Ac3-5 1 sub ita-MIRCrew


0

0
seeders: 4 leechers: 11 updated: 4 days ago
Added 4 days ago in Movies - Highres Movies
Downloaded 5 times.
Il talento del calabrone (2020) 1080p H264 ita Ac3-5 1 sub ita-MIRCrew
  • Release date: 5 Mar 2020
  • Release year: 2020
  • Runtime: 84 mintues
  • Country: Italy
Plot:
Dj Steph is a young radio deejay on the rise, who gained a lot of popularity on social media and every evening hosts a radio show with a large following, during which he receives calls from his fans. One evening, a call chills him to the bone: a cold-blooded stranger announces on live radio that he plans to take his own life, making himself explode in the middle of the city. Steph tries to handle the situation: the suicide bomber threatens to blow himself up if the deejay doesn't entertain him on live radio. The man, who calls himself Carlo, plays with Steph in a duel of mental endurance. Meanwhile, a task force led by the resolute policewoman Rosa Amedei hunts the terrorist and discovers that the scheme that the man has put in place is far more intricate than he wants to make it appear: it's the revenge of a man of superior intelligence, able to put a whole city in check thanks to a single, simple phone call.

Available in versions:
WEB-DL 1080p

Files

Il talento del calabrone (2020).1080p.h264.ita.sub.ita-MIRCrew.ita.srt (2 GB)
Il talento del calabrone (2020).1080p.h264.ita.sub.ita-MIRCrew.ita.srt 84.8 KB
Il talento del calabrone (2020).1080p.h264.ita.sub.ita-MIRCrew.mkv 2 GB

Description

Il talento del calabrone (2020).1080p.H264.ita.Ac3-5.1.sub.ita-MIRCrew


NO FOUND ONLY ORIGINAL RELEASE

My release is always in double track audio italian and Original audio
for select it use VLC or dvd player home
not use wmp

Il talento del calabrone (2020)

Quality MIRCrew on HD 720p da 2,0 gb

]







Lingua originale italiano
Paese di produzione Italia, Spagna
Anno 2020
Durata 84 min
Rapporto 2,39:1
Genere thriller, poliziesco, drammatico
Regia Giacomo Cimini
Soggetto Lorenzo Collalti
Sceneggiatura Giacomo Cimini, Lorenzo Collalti



Sergio Castellitto: Carlo
Lorenzo Richelmy: Dj Steph
Anna Foglietta: tenente colonnello Rosa Amedei
Gianluca Gobbi: fonico
David Coco: capitano dei Carabinieri



Un uomo a bordo di un'autobomba, Carlo, chiama in diretta Radio 105 e minaccia di suicidarsi mentre gira in auto per Milano



The 47-year old Al Capone, after 10 years in prison, starts suffering from dementia and comes to be haunted by his violent past.















General

Complete name : Il talento del calabrone (2020).1080p.h264.ita.sub.ita-MIRCrew\Il talento del calabrone (2020).1080p.h264.ita.sub.ita-MIRCrew.mkv
Format : Matroska
Format version : Version 2
File size : 2.01 GiB
Duration : 1h 32mn
Overall bit rate : 3 120 Kbps
Movie name : MIRCrew
Encoded date : UTC 2020-11-20 17:39:08
Writing application : mkvmerge v5.8.0 ('No Sleep / Pillow') built on Sep 2 2012 15:37:04
Writing library : Lavf54.63.100
COMMENT : MIRCrew

Video
ID : 1
Format : AVC
Format/Info : Advanced Video Codec
Format profile : [email protected]
Format settings, CABAC : Yes
Format settings, ReFrames : 2 frames
Codec ID : V_MPEG4/ISO/AVC
Duration : 1h 32mn
Bit rate : 2 500 Kbps
Width : 1 920 pixels
Height : 800 pixels
Display aspect ratio : 2.40:1
Frame rate mode : Variable
Frame rate : 25.000 fps
Color space : YUV
Chroma subsampling : 4:2:0
Bit depth : 8 bits
Scan type : Progressive
Bits/(Pixel*Frame) : 0.065
Stream size : 1.55 GiB (77%)
Title : MIRCrew
Writing library : x264 core 130 r2273
Encoding settings : cabac=1 / ref=2 / deblock=1:-1:-1 / analyse=0x1:0x131 / me=hex / subme=7 / psy=1 / psy_rd=1.00:0.10 / mixed_ref=0 / me_range=16 / chroma_me=1 / trellis=1 / 8x8dct=0 / cqm=0 / deadzone=21,11 / fast_pskip=1 / chroma_qp_offset=-3 / threads=9 / lookahead_threads=1 / sliced_threads=0 / nr=0 / decimate=1 / interlaced=0 / bluray_compat=0 / constrained_intra=0 / bframes=3 / b_pyramid=0 / b_adapt=1 / b_bias=0 / direct=3 / weightb=1 / open_gop=0 / weightp=2 / keyint=250 / keyint_min=25 / scenecut=40 / intra_refresh=0 / rc_lookahead=40 / rc=abr / mbtree=1 / bitrate=2500 / ratetol=1.0 / qcomp=0.60 / qpmin=10 / qpmax=69 / qpstep=4 / vbv_maxrate=24000 / vbv_bufsize=24000 / nal_hrd=none / ip_ratio=1.40 / aq=1:1.00
Language : Italian
Default : Yes
Forced : No
DURATION : 01:32:02.120000000
NUMBER_OF_FRAMES : 138053
NUMBER_OF_BYTES : 4617497507
_STATISTICS_WRITING_APP : mkvmerge v51.0.0 ('I Wish') 64-bit
_STATISTICS_WRITING_DATE_UTC : 2020-11-18 10:18:42
_STATISTICS_TAGS : BPS DURATION NUMBER_OF_FRAMES NUMBER_OF_BYTES

Audio
ID : 2
Format : AC-3
Format/Info : Audio Coding 3
Mode extension : CM (complete main)
Codec ID : A_AC3
Duration : 1h 32mn
Bit rate mode : Constant
Bit rate : 640 Kbps
Channel(s) : 6 channels
Channel positions : Front: L C R, Side: L R, LFE
Sampling rate : 48.0 KHz
Bit depth : 16 bits
Compression mode : Lossy
Delay relative to video : -40ms
Stream size : 421 MiB (21%)
Title : Ita Ac3 5.1
Language : Italian
Default : Yes
Forced : No




Related Torrents

Tracker name
udp://tracker.torrent.eu.org:451/announce
udp://tracker.coppersurfer.tk:6969/announce
udp://tracker.torrent.eu.org:451/announce
udp://tracker.pirateparty.gr:6969/announce
udp://tracker.leechers-paradise.org:6969/announce
udp://tracker.cyberia.is:6969/announce
udp://tracker.iamhansen.xyz:2000/announce
udp://p4p.arenabg.com:1337/announce
udp://explodie.org:6969/announce
udp://tracker.opentrackr.org:1337/announce
udp://tracker.tiny-vps.com:6969/announce
udp://exodus.desync.com:6969/announce
udp://ipv4.tracker.harry.lu:80/announce
udp://open.stealth.si:80/announce
udp://tracker.zer0day.to:1337/announce
udp://tracker.leechers-paradise.org:6969/announce
udp://coppersurfer.tk:6969/announce
Torrent hash: 26133BE8523C6A7F3AC9252618204B590E7FE71E

0 Comment

Login to post comments