John Wick 2014 BR EAC3 VFF VFQ ENG 1080p x265 10Bits T0M (John Wick 1)


0

0
seeders: 1 leechers: 4 updated: 1 year ago
Added 1 year ago in Movies
Downloaded 7 times.
John Wick 2014 BR EAC3 VFF VFQ ENG 1080p x265 10Bits T0M (John Wick 1)
Plot:
With the untimely death of his beloved wife still bitter in his mouth, John Wick, the expert former assassin, receives one final gift from her--a precious keepsake to help John find a new meaning in life now that she is gone. But when the arrogant Russian mob prince, Iosef Tarasov, and his men pay Wick a rather unwelcome visit to rob him of his prized 1969 Mustang and his wife's present, the legendary hitman will be forced to unearth his meticulously concealed identity. Blind with revenge, John will immediately unleash a carefully orchestrated maelstrom of destruction against the sophisticated kingpin, Viggo Tarasov, and his family, who are fully aware of his lethal capacity. Now, only blood can quench the boogeyman's thirst for retribution.

Available in versions:
DVD-R BDRip x264 x265 720p 1080p 2160p 4320p

Files

John Wick 1 2014 BR EAC3 VFF VFQ ENG 1080p x265 10Bits T0M.mkv (3.44 GB)
John Wick 1 2014 BR EAC3 VFF VFQ ENG 1080p x265 10Bits T0M.mkv 3.44 GB

Description

______________________________________________________________________________________________________________
John Wick 2014
Bluray · 1080p x265 10bits · DD+ 5.1 VFF VFQ ENG
¯¯¯¯¯¯¯¯¯¯¯¯¯¯¯¯¯¯¯¯¯¯¯¯¯¯¯¯¯¯¯¯¯¯¯¯¯¯¯¯¯¯¯¯¯¯¯¯¯¯¯¯¯¯¯¯¯¯¯¯¯¯¯¯¯¯¯¯¯¯¯¯¯¯¯¯¯¯¯¯



Year : 2014
Country : United States, Canada, China
Original title : John Wick
Director : David Leitch , Chad Stahelski
Music from : Tyler Bates, Joel J. Richard
Actors : Keanu Reeves, Michael Nyqvist, Alfie Allen, Willem Dafoe, Adrianne Palicki
Bridget Moynahan, John Leguizamo, Ian McShane, Dean Winters, Lance Reddick, Toby Moore
Genre : Action, Crime, Thriller
Certificate : Not recommended for children under 12 years old
Budget : 20 000 000 $ · Recipe : 117 189 808 $ · ratio : 586 %
Link : Bande Annonce

French Plot
Depuis la mort de sa femme bien-aimée, John Wick passe ses journées à retaper sa Ford Mustang 69 , avec pour seule compagnie sa chienne Daisy . Il mène une vie sans histoire, jusqu’à ce qu’un malfrat sadique nommé Iosef Tarasof remarque sa voiture. John refuse de la lui vendre. Iosef n’acceptant pas qu’on lui résiste, s’introduit chez John avec deux complices pour voler la Mustang, et tuer sauvagement Daisy... John remonte la piste de Iosef jusqu’à New York . Un ancien contact, Aurelio , lui apprend que le malfrat est le fils unique d’un grand patron de la pègre, Viggo Tarasof . La rumeur se répand rapidement dans le milieu : le légendaire tueur cherche Iosef. Viggo met à prix la tête de John : quiconque l’abattra touchera une énorme récompense. John a désormais tous les assassins de New York aux trousses...
Scénario et histoire basé sur les personnages créés par : Derek Kolstad

[url=#/sort-search/t0m/time/desc/1/][img]https://images2.imgbox.com/66/c4/vskdTox7_o.gif[/img][/url]
If you enjoy and wish to support, please stay in seeding

Technical Details
¯¯¯¯¯¯¯¯¯¯¯¯¯¯¯¯¯¯¯¯¯¯¯¯¯¯¯¯¯¯¯¯¯¯¯¯¯¯¯¯¯¯¯¯¯¯¯¯¯¯¯¯¯¯¯¯¯¯¯¯¯¯¯¯¯¯¯¯¯¯¯¯¯¯¯¯¯¯¯¯¯¯¯¯¯¯¯¯¯¯¯¯¯¯¯¯¯¯¯¯

Media
Matroska 3,44 Gio 1 h41 mn 4857 Kbps
Video
[url=/cdn-cgi/l/email-protection" data-cfemail="a2efc3cbcc9392e2ee96][email protected][/url]@Main 10 bits 3501 Kbps VerySlow
Audio
True French 5.1 EAC3 448 Kbps 48KHz 16bits
Quebec French 5.1 EAC3 448 Kbps 48KHz 16bits
English 5.1 EAC3 448 Kbps 48KHz 16bits
Subtitles
True French Titre SRT
True French full SRT
Quebec French forced SRT
True French full PGS
True French Sourds&Malentendants PGS
Chapters
International, True French, English
Screenshot


NFO
¯¯¯¯¯¯¯¯¯¯¯¯¯¯¯¯¯¯¯¯¯¯¯¯¯¯¯¯¯¯¯¯¯¯¯¯¯¯¯¯¯¯¯¯¯¯¯¯¯¯¯¯¯¯¯¯¯¯¯¯¯¯¯¯¯¯¯¯¯¯¯¯¯¯¯¯¯¯¯¯¯¯¯¯¯¯¯¯¯¯¯¯¯¯¯¯¯¯¯¯

General
Complete name : John Wick 1 2014 BR EAC3 VFF VFQ ENG 1080p x265 10Bits T0M.mkv
Format : Matroska
Format version : Version 4
File size : 3.44 GiB
Duration : 1 h 41 min
Overall bit rate : 4 857 kb/s
Movie name : John Wick 2014 de David Leitch, Chad Stahelski avec Keanu Reeves, Michael Nyqvist, Alfie Allen, Willem Dafoe, Adrianne Palicki, Bridget Moynahan, John Leguizamo, Ian McShane, Dean Winters, Lance Reddick, Toby Moore. -12 ans (allocine=221387,imdb=tt2911666) T0M
Encoded date : UTC 2019-07-25 17:40:14
Writing application : mkvmerge v33.1.0 ('Primrose') 64-bit
Writing library : libebml v1.3.7 + libmatroska v1.5.0
Cover : Yes
Attachments : Cover.jpg

Video
ID : 1
Format : HEVC
Format/Info : High Efficiency Video Coding
Format profile : Main [email protected]@Main
Codec ID : V_MPEGH/ISO/HEVC
Duration : 1 h 41 min
Bit rate : 3 501 kb/s
Width : 1 920 pixels
Height : 800 pixels
Display aspect ratio : 2.40:1
Frame rate mode : Constant
Frame rate : 23.976 (24000/1001) FPS
Color space : YUV
Chroma subsampling : 4:2:0
Bit depth : 10 bits
Bits/(Pixel*Frame) : 0.095
Stream size : 2.48 GiB (72%)
Title : Video HEVC 1920x800 @23.976 x265 [email protected]@Main 10bits 3500kbps 2pass veryslow 1688mn
Writing library : x265 2.9:[Windows][GCC 8.2.0][64 bit] 10bit
Encoding settings : cpuid=1111039 / frame-threads=3 / numa-pools=8 / wpp / no-pmode / no-pme / no-psnr / no-ssim / log-level=2 / input-csp=1 / input-res=1920x800 / interlace=0 / total-frames=0 / level-idc=0 / high-tier=1 / uhd-bd=0 / ref=5 / no-allow-non-conformance / no-repeat-headers / annexb / no-aud / no-hrd / info / hash=0 / no-temporal-layers / open-gop / min-keyint=24 / keyint=240 / gop-lookahead=0 / bframes=8 / b-adapt=2 / b-pyramid / bframe-bias=0 / rc-lookahead=120 / lookahead-slices=0 / scenecut=40 / radl=0 / no-intra-refresh / ctu=64 / min-cu-size=8 / rect / amp / max-tu-size=32 / tu-inter-depth=3 / tu-intra-depth=3 / limit-tu=4 / rdoq-level=2 / dynamic-rd=0.00 / no-ssim-rd / signhide / no-tskip / nr-intra=0 / nr-inter=0 / no-constrained-intra / strong-intra-smoothing / max-merge=4 / limit-refs=1 / limit-modes / me=3 / subme=4 / merange=57 / temporal-mvp / weightp / weightb / no-analyze-src-pics / deblock=0:0 / sao / no-sao-non-deblock / rd=6 / no-early-skip / rskip / no-fast-intra / no-tskip-fast / no-cu-lossless / b-intra / no-splitrd-skip / rdpenalty=0 / psy-rd=2.00 / psy-rdoq=1.00 / no-rd-refine / no-lossless / cbqpoffs=0 / crqpoffs=0 / rc=abr / bitrate=3500 / qcomp=0.60 / qpstep=4 / stats-write=0 / stats-Read=2 / cplxblur=20.0 / qblur=0.5 / ipratio=1.40 / pbratio=1.30 / aq-mode=1 / aq-strength=1.00 / cutree / zone-count=0 / no-strict-cbr / qg-size=32 / no-rc-grain / qpmax=69 / qpmin=0 / no-const-vbv / sar=1 / overscan=0 / videoformat=5 / range=0 / colorprim=1 / transfer=1 / colormatrix=1 / chromaloc=0 / display-window=0 / max-cll=0,0 / min-luma=0 / max-luma=1023 / log2-max-poc-lsb=8 / vui-timing-info / vui-hrd-info / slices=1 / no-opt-qp-pps / no-opt-ref-list-length-pps / no-multi-pass-opt-rps / scenecut-bias=0.05 / no-opt-cu-delta-qp / no-aq-motion / no-hdr / no-hdr-opt / no-dhdr10-opt / no-idr-recovery-sei / analysis-reuse-level=5 / scale-factor=0 / refine-intra=0 / refine-inter=0 / refine-mv=0 / no-limit-sao / ctu-info=0 / no-lowpass-dct / refine-mv-type=0 / copy-pic=1 / max-ausize-factor=1.0 / no-dynamic-refine / no-single-sei
Language : French
Default : Yes
Forced : No
Color range : Limited
Color primaries : BT.709
Transfer characteristics : BT.709
Matrix coefficients : BT.709

Audio #1
ID : 2
Format : E-AC-3
Format/Info : Enhanced AC-3
Commercial name : Dolby Digital Plus
Codec ID : A_EAC3
Duration : 1 h 41 min
Bit rate mode : Constant
Bit rate : 448 kb/s
Channel(s) : 6 channels
Channel layout : L R C LFE Ls Rs
Sampling rate : 48.0 kHz
Frame rate : 31.250 FPS (1536 SPF)
Compression mode : Lossy
Stream size : 325 MiB (9%)
Title : Français 5.1 EAC3 448kbps 48khz 16bits
Language : French
Service kind : Complete Main
Default : Yes
Forced : No

Audio #2
ID : 3
Format : E-AC-3
Format/Info : Enhanced AC-3
Commercial name : Dolby Digital Plus
Codec ID : A_EAC3
Duration : 1 h 41 min
Bit rate mode : Constant
Bit rate : 448 kb/s
Channel(s) : 6 channels
Channel layout : L R C LFE Ls Rs
Sampling rate : 48.0 kHz
Frame rate : 31.250 FPS (1536 SPF)
Compression mode : Lossy
Stream size : 325 MiB (9%)
Title : Québécois 5.1 EAC3 448kbps 48khz 16bits
Language : French
Service kind : Complete Main
Default : No
Forced : No

Audio #3
ID : 4
Format : E-AC-3
Format/Info : Enhanced AC-3
Commercial name : Dolby Digital Plus
Codec ID : A_EAC3
Duration : 1 h 41 min
Bit rate mode : Constant
Bit rate : 448 kb/s
Channel(s) : 6 channels
Channel layout : L R C LFE Ls Rs
Sampling rate : 48.0 kHz
Frame rate : 31.250 FPS (1536 SPF)
Compression mode : Lossy
Stream size : 325 MiB (9%)
Title : English 5.1 EAC3 448kbps 48khz 16bits
Language : English
Service kind : Complete Main
Default : No
Forced : No

Text #1
ID : 5
Format : UTF-8
Codec ID : S_TEXT/UTF8
Codec ID/Info : UTF-8 Plain Text
Duration : 1 h 41 min
Bit rate : 0 b/s
Count of elements : 2
Stream size : 310 Bytes (0%)
Title : Français Titre
Language : French
Default : Yes
Forced : Yes

Text #2
ID : 6
Format : UTF-8
Codec ID : S_TEXT/UTF8
Codec ID/Info : UTF-8 Plain Text
Duration : 1 h 41 min
Bit rate : 19 b/s
Count of elements : 555
Stream size : 14.3 KiB (0%)
Title : Français complet (Tous le film)
Language : French
Default : No
Forced : No

Text #3
ID : 7
Format : UTF-8
Codec ID : S_TEXT/UTF8
Codec ID/Info : UTF-8 Plain Text
Duration : 1 h 41 min
Bit rate : 2 b/s
Count of elements : 70
Stream size : 1.89 KiB (0%)
Title : Québécois forcé (Passages)
Language : French
Default : No
Forced : Yes

Text #4
ID : 8
Format : PGS
Muxing mode : zlib
Codec ID : S_HDMV/PGS
Codec ID/Info : Picture based subtitle format used on BDs/HD-DVDs
Duration : 1 h 40 min
Bit rate : 10.6 kb/s
Count of elements : 1110
Stream size : 7.64 MiB (0%)
Title : Français complet (Tous le film) PGS
Language : French
Default : No
Forced : No

Text #5
ID : 9
Format : PGS
Muxing mode : zlib
Codec ID : S_HDMV/PGS
Codec ID/Info : Picture based subtitle format used on BDs/HD-DVDs
Duration : 1 h 40 min
Bit rate : 15.5 kb/s
Count of elements : 2444
Stream size : 11.2 MiB (0%)
Title : Français Sourds&Malentendants PGS
Language : French
Default : No
Forced : No

Menu
00:00:00.000 : :01 - 00:00:00 - fr:John et Helen - en:John and Helen / Main Titles
00:10:50.983 : :02 - 00:10:50 - fr:Un chiot nommé Daisy - en:A Puppy Named Daisy
00:13:40.402 : :03 - 00:13:40 - fr:Vous vous êtes trompé avec le mauvais homme - en:You Messed With The Wrong Man
00:16:32.241 : :04 - 00:16:32 - fr:Le garage d'Aurelio / Baba Yaga - en:Aurelio's Chop Shop / The Baba Yaga
00:21:35.377 : :05 - 00:21:35 - fr:Nettoyage maison - en:Cleaning House
00:28:03.264 : :06 - 00:28:03 - fr:Offre face à face - en:Face to Face Offer
00:34:44.582 : :07 - 00:34:44 - fr:Le Continental - en:The Continental
00:38:23.801 : :08 - 00:38:23 - fr:Prendre un verre - en:Have a Drink
00:44:25.829 : :09 - 00:44:25 - fr:Le Red Circle - en:The Red Circle Nightclub
00:55:13.685 : :10 - 00:55:13 - fr:La visite de Mme Perkins - en:Ms. Perkins' Visit
01:01:25.598 : :11 - 01:01:25 - fr:Petite église russe - en:Little Russia Church
01:06:25.064 : :12 - 01:06:25 - fr:L'interrogatoire de Viggo - en:Viggo's Interrogation
01:14:27.087 : :13 - 01:14:27 - fr:Tuer Iosef dans sa planque - en:Killing Iosef at the Safe House
01:18:33.166 : :14 - 01:18:33 - fr:Marcus - en:Marcus is Caught
01:25:01.012 : :15 - 01:25:01 - fr:Qu'il pleuve, confrontation - en:Let it Rain / Showdown
01:34:49.391 : :16 - 01:34:49 - fr:Rentrons à la maison / Générique - en:Let's Go Home / End Credits

Related Torrents

Tracker name
udp://tracker.leechers-paradise.org:6969/announce
udp://tracker.internetwarriors.net:1337/announce
udp://tracker.opentrackr.org:1337/announce
udp://tracker.coppersurfer.tk:6969/announce
udp://tracker.pirateparty.gr:6969/announce
udp://9.rarbg.to:2730/announce
udp://9.rarbg.to:2710/announce
udp://bt.xxx-tracker.com:2710/announce
udp://tracker.cyberia.is:6969/announce
udp://retracker.lanta-net.ru:2710/announce
udp://9.rarbg.to:2770/announce
udp://9.rarbg.me:2730/announce
udp://eddie4.nl:6969/announce
udp://tracker.mg64.net:6969/announce
udp://open.demonii.si:1337/announce
udp://tracker.zer0day.to:1337/announce
udp://tracker.tiny-vps.com:6969/announce
udp://ipv6.tracker.harry.lu:80/announce
udp://9.rarbg.me:2740/announce
udp://9.rarbg.me:2770/announce
udp://denis.stalker.upeer.me:6969/announce
udp://tracker.port443.xyz:6969/announce
udp://tracker.moeking.me:6969/announce
udp://exodus.desync.com:6969/announce
udp://9.rarbg.to:2740/announce
udp://9.rarbg.to:2720/announce
udp://tracker.justseed.it:1337/announce
udp://tracker.torrent.eu.org:451/announce
udp://ipv4.tracker.harry.lu:80/announce
udp://tracker.open-internet.nl:6969/announce
udp://torrentclub.tech:6969/announce
udp://open.stealth.si:80/announce
http://tracker.tfile.co:80/announce
Torrent hash: 0F463A08E11F3ADACC4A24818B3359FB5C26DAA2

0 Comment

Login to post comments