John Wick Chapter 2 2017 BR EAC3 VFF VFQ ENG 1080p x265 10Bits T0M (John Wick 2)


0

0
seeders: 2 leechers: 3 updated: 1 year ago
Added 1 year ago in Movies
Downloaded 18 times.
John Wick Chapter 2 2017 BR EAC3 VFF VFQ ENG 1080p x265 10Bits T0M (John Wick 2)
Plot:
Bound by an inescapable blood debt to the Italian crime lord, Santino D'Antonio, and with his precious 1969 Mustang still stolen, John Wick--the taciturn and pitiless assassin who thirsts for seclusion--is forced to visit Italy to honour his promise. But, soon, the Bogeyman will find himself dragged into an impossible task in the heart of Rome's secret criminal society, as every killer in the business dreams of cornering the legendary Wick who now has an enormous price on his head. Drenched in blood and mercilessly hunted down, John Wick can surely forget a peaceful retirement--as in this lethal ballet of bullets--no one can make it out in one piece.

Available in versions:
BDRip x264 x265 720p 1080p 2160p 4320p

Files

John Wick 2 2017 BR EAC3 VFF VFQ ENG 1080p x265 10Bits T0M.mkv (4.2 GB)
John Wick 2 2017 BR EAC3 VFF VFQ ENG 1080p x265 10Bits T0M.mkv 4.2 GB

Description

______________________________________________________________________________________________________________
John Wick 2 2017
Bluray · 1080p x265 10bits · DD+ 5.1 VFF VFQ ENG
¯¯¯¯¯¯¯¯¯¯¯¯¯¯¯¯¯¯¯¯¯¯¯¯¯¯¯¯¯¯¯¯¯¯¯¯¯¯¯¯¯¯¯¯¯¯¯¯¯¯¯¯¯¯¯¯¯¯¯¯¯¯¯¯¯¯¯¯¯¯¯¯¯¯¯¯¯¯¯¯



Year : 2017
Country : United States
Original title : John Wick : Chapter 2
Quebec title : John Wick : Chapitre 2
Director : Chad Stahelski
Music from : Tyler Bates, Joel J. Richard
Actors : Keanu Reeves, Common, Laurence Fishburne, Riccardo Scamarcio, Ian McShane, Ruby Rose
Lance Reddick, Peter Stormare, Bridget Moynahan, John Leguizamo, Franco Nero, Claudia Gerini, Wass Stevens
Genre : Action, Crime, Thriller
Certificate : Not recommended for children under 12 years old
Budget : 40 000 000 $ · Recipe : 201 453 235 $ · ratio : 504 %
Link : Bande Annonce

French Plot
John Wick est forcé de sortir de sa retraite volontaire par un de ses ex-associés qui cherche à prendre le contrôle d’une mystérieuse confrérie de tueurs internationaux. Parce qu’il est lié à cet homme par un serment, John se rend à Rome, où il va devoir affronter certains des tueurs les plus dangereux du monde.
Scénario et histoire basé sur les personnages créés par : Derek Kolstad

[url=#/sort-search/t0m/time/desc/1/][img]https://images2.imgbox.com/66/c4/vskdTox7_o.gif[/img][/url]
If you enjoy and wish to support, please stay in seeding

Technical Details
¯¯¯¯¯¯¯¯¯¯¯¯¯¯¯¯¯¯¯¯¯¯¯¯¯¯¯¯¯¯¯¯¯¯¯¯¯¯¯¯¯¯¯¯¯¯¯¯¯¯¯¯¯¯¯¯¯¯¯¯¯¯¯¯¯¯¯¯¯¯¯¯¯¯¯¯¯¯¯¯¯¯¯¯¯¯¯¯¯¯¯¯¯¯¯¯¯¯¯¯

Media
Matroska 4,20 Gio 2 h02 mn 4916 Kbps
Video
[url=/cdn-cgi/l/email-protection" data-cfemail="5b163a32356a6b1b176f][email protected][/url]@Main 10 bits 3420 Kbps VerySlow
Audio
True French 5.1 EAC3 448 Kbps 48KHz 16bits
Quebec French 5.1 EAC3 448 Kbps 48KHz 16bits
English 5.1 EAC3 448 Kbps 48KHz 16bits
English Commentary by Keanu Reeves and Chad Stahelski 2.0 EAC3 128 Kbps 48KHz 16bits
Subtitles
True French forced SRT
True French full SRT
True French forced PGS
True French full PGS
English full PGS
English full SDH PGS
English forced Incrusté
Chapters
International
Screenshot


NFO
¯¯¯¯¯¯¯¯¯¯¯¯¯¯¯¯¯¯¯¯¯¯¯¯¯¯¯¯¯¯¯¯¯¯¯¯¯¯¯¯¯¯¯¯¯¯¯¯¯¯¯¯¯¯¯¯¯¯¯¯¯¯¯¯¯¯¯¯¯¯¯¯¯¯¯¯¯¯¯¯¯¯¯¯¯¯¯¯¯¯¯¯¯¯¯¯¯¯¯¯

General
Complete name : John Wick 2 2017 BR EAC3 VFF VFQ ENG 1080p x265 10Bits T0M.mkv
Format : Matroska
Format version : Version 4
File size : 4.20 GiB
Duration : 2 h 2 min
Overall bit rate : 4 916 kb/s
Movie name : John Wick 2 (John Wick : Chapter 2) 2017 de Chad Stahelski avec Keanu Reeves, Common, Laurence Fishburne, Riccardo Scamarcio, Ian McShane, Ruby Rose, Lance Reddick, Peter Stormare, Bridget Moynahan, John Leguizamo, Franco Nero, Claudia Gerini, Wass Stevens. -12 ans (allocine=235341,imdb=tt4425200) T0M
Encoded date : UTC 2019-07-27 17:29:02
Writing application : mkvmerge v35.0.0 ('All The Love In The World') 64-bit
Writing library : libebml v1.3.9 + libmatroska v1.5.2
Cover : Yes
Attachments : Cover.jpg

Video
ID : 1
Format : HEVC
Format/Info : High Efficiency Video Coding
Format profile : Main [email protected]@Main
Codec ID : V_MPEGH/ISO/HEVC
Duration : 2 h 2 min
Bit rate : 3 420 kb/s
Width : 1 920 pixels
Height : 800 pixels
Display aspect ratio : 2.40:1
Frame rate mode : Constant
Frame rate : 23.976 (24000/1001) FPS
Color space : YUV
Chroma subsampling : 4:2:0
Bit depth : 10 bits
Bits/(Pixel*Frame) : 0.093
Stream size : 2.92 GiB (70%)
Title : Video HEVC 1920x800 @23.976 x265 [email protected]@Main 10bits 3420kbps 2pass veryslow 2134mn
Writing library : x265 2.9:[Windows][GCC 8.2.0][64 bit] 10bit
Encoding settings : cpuid=1111039 / frame-threads=3 / numa-pools=8 / wpp / no-pmode / no-pme / no-psnr / no-ssim / log-level=2 / input-csp=1 / input-res=1920x800 / interlace=0 / total-frames=0 / level-idc=0 / high-tier=1 / uhd-bd=0 / ref=5 / no-allow-non-conformance / no-repeat-headers / annexb / no-aud / no-hrd / info / hash=0 / no-temporal-layers / open-gop / min-keyint=24 / keyint=240 / gop-lookahead=0 / bframes=8 / b-adapt=2 / b-pyramid / bframe-bias=0 / rc-lookahead=120 / lookahead-slices=0 / scenecut=40 / radl=0 / no-intra-refresh / ctu=64 / min-cu-size=8 / rect / amp / max-tu-size=32 / tu-inter-depth=3 / tu-intra-depth=3 / limit-tu=4 / rdoq-level=2 / dynamic-rd=0.00 / no-ssim-rd / signhide / no-tskip / nr-intra=0 / nr-inter=0 / no-constrained-intra / strong-intra-smoothing / max-merge=4 / limit-refs=1 / limit-modes / me=3 / subme=4 / merange=57 / temporal-mvp / weightp / weightb / no-analyze-src-pics / deblock=0:0 / sao / no-sao-non-deblock / rd=6 / no-early-skip / rskip / no-fast-intra / no-tskip-fast / no-cu-lossless / b-intra / no-splitrd-skip / rdpenalty=0 / psy-rd=2.00 / psy-rdoq=1.00 / no-rd-refine / no-lossless / cbqpoffs=0 / crqpoffs=0 / rc=abr / bitrate=3420 / qcomp=0.60 / qpstep=4 / stats-write=0 / stats-Read=2 / cplxblur=20.0 / qblur=0.5 / ipratio=1.40 / pbratio=1.30 / aq-mode=1 / aq-strength=1.00 / cutree / zone-count=0 / no-strict-cbr / qg-size=32 / no-rc-grain / qpmax=69 / qpmin=0 / no-const-vbv / sar=1 / overscan=0 / videoformat=5 / range=0 / colorprim=1 / transfer=1 / colormatrix=1 / chromaloc=0 / display-window=0 / max-cll=0,0 / min-luma=0 / max-luma=1023 / log2-max-poc-lsb=8 / vui-timing-info / vui-hrd-info / slices=1 / no-opt-qp-pps / no-opt-ref-list-length-pps / no-multi-pass-opt-rps / scenecut-bias=0.05 / no-opt-cu-delta-qp / no-aq-motion / no-hdr / no-hdr-opt / no-dhdr10-opt / no-idr-recovery-sei / analysis-reuse-level=5 / scale-factor=0 / refine-intra=0 / refine-inter=0 / refine-mv=0 / no-limit-sao / ctu-info=0 / no-lowpass-dct / refine-mv-type=0 / copy-pic=1 / max-ausize-factor=1.0 / no-dynamic-refine / no-single-sei
Language : English
Default : Yes
Forced : No
Color range : Limited
Color primaries : BT.709
Transfer characteristics : BT.709
Matrix coefficients : BT.709

Audio #1
ID : 2
Format : E-AC-3
Format/Info : Enhanced AC-3
Commercial name : Dolby Digital Plus
Codec ID : A_EAC3
Duration : 2 h 2 min
Bit rate mode : Constant
Bit rate : 448 kb/s
Channel(s) : 6 channels
Channel layout : L R C LFE Ls Rs
Sampling rate : 48.0 kHz
Frame rate : 31.250 FPS (1536 SPF)
Compression mode : Lossy
Stream size : 392 MiB (9%)
Title : Français 5.1 EAC3 448kbps 48khz 16bits
Language : French
Service kind : Complete Main
Default : Yes
Forced : No

Audio #2
ID : 3
Format : E-AC-3
Format/Info : Enhanced AC-3
Commercial name : Dolby Digital Plus
Codec ID : A_EAC3
Duration : 2 h 2 min
Bit rate mode : Constant
Bit rate : 448 kb/s
Channel(s) : 6 channels
Channel layout : L R C LFE Ls Rs
Sampling rate : 48.0 kHz
Frame rate : 31.250 FPS (1536 SPF)
Compression mode : Lossy
Delay relative to video : 1 s 0 ms
Stream size : 392 MiB (9%)
Title : Québécois 5.1 EAC3 448kbps 48khz 16bits
Language : French
Service kind : Complete Main
Default : No
Forced : No

Audio #3
ID : 4
Format : E-AC-3
Format/Info : Enhanced AC-3
Commercial name : Dolby Digital Plus
Codec ID : A_EAC3
Duration : 2 h 2 min
Bit rate mode : Constant
Bit rate : 448 kb/s
Channel(s) : 6 channels
Channel layout : L R C LFE Ls Rs
Sampling rate : 48.0 kHz
Frame rate : 31.250 FPS (1536 SPF)
Compression mode : Lossy
Stream size : 392 MiB (9%)
Title : English 5.1 EAC3 448kbps 48khz 16bits
Language : English
Service kind : Complete Main
Default : No
Forced : No

Audio #4
ID : 5
Format : E-AC-3
Format/Info : Enhanced AC-3
Commercial name : Dolby Digital Plus
Codec ID : A_EAC3
Duration : 2 h 2 min
Bit rate mode : Constant
Bit rate : 128 kb/s
Channel(s) : 2 channels
Channel layout : L R
Sampling rate : 48.0 kHz
Frame rate : 31.250 FPS (1536 SPF)
Compression mode : Lossy
Stream size : 112 MiB (3%)
Title : English comment by Keanu Reeves and Chad Stahelski 2.0 EAC3 128kbps 48khz 16bits
Language : English
Service kind : Complete Main
Default : No
Forced : No

Text #1
ID : 6
Format : UTF-8
Codec ID : S_TEXT/UTF8
Codec ID/Info : UTF-8 Plain Text
Duration : 2 h 2 min
Bit rate : 1 b/s
Count of elements : 62
Stream size : 1.41 KiB (0%)
Title : Français forcé (Passages)
Language : French
Default : Yes
Forced : Yes

Text #2
ID : 7
Format : UTF-8
Codec ID : S_TEXT/UTF8
Codec ID/Info : UTF-8 Plain Text
Duration : 2 h 2 min
Bit rate : 20 b/s
Count of elements : 643
Stream size : 18.6 KiB (0%)
Title : Français complet (Tous le film)
Language : French
Default : No
Forced : No

Text #3
ID : 8
Format : PGS
Muxing mode : zlib
Codec ID : S_HDMV/PGS
Codec ID/Info : Picture based subtitle format used on BDs/HD-DVDs
Duration : 1 h 50 min
Bit rate : 836 b/s
Count of elements : 98
Stream size : 675 KiB (0%)
Title : Français forcé (Passages) PGS
Language : French
Default : No
Forced : Yes

Text #4
ID : 9
Format : PGS
Muxing mode : zlib
Codec ID : S_HDMV/PGS
Codec ID/Info : Picture based subtitle format used on BDs/HD-DVDs
Duration : 1 h 51 min
Bit rate : 13.1 kb/s
Count of elements : 1282
Stream size : 10.5 MiB (0%)
Title : Français complet (Tous le film) PGS
Language : French
Default : No
Forced : No

Text #5
ID : 10
Format : PGS
Muxing mode : zlib
Codec ID : S_HDMV/PGS
Codec ID/Info : Picture based subtitle format used on BDs/HD-DVDs
Duration : 1 h 49 min
Bit rate : 13.9 kb/s
Count of elements : 1338
Stream size : 11.0 MiB (0%)
Title : English full (All the movie) PGS
Language : English
Default : No
Forced : No

Text #6
ID : 11
Format : PGS
Muxing mode : zlib
Codec ID : S_HDMV/PGS
Codec ID/Info : Picture based subtitle format used on BDs/HD-DVDs
Duration : 1 h 54 min
Bit rate : 16.9 kb/s
Count of elements : 1862
Stream size : 13.8 MiB (0%)
Title : English full SDH PGS
Language : English
Default : No
Forced : No

Menu
00:00:00.000 : :01 - 00:00:00
00:06:32.683 : :02 - 00:06:32
00:16:58.934 : :03 - 00:16:58
00:26:36.595 : :04 - 00:26:36
00:34:39.035 : :05 - 00:34:39
00:42:08.817 : :06 - 00:42:08
00:48:08.051 : :07 - 00:48:08
00:56:42.649 : :08 - 00:56:42
01:01:43.783 : :09 - 01:01:43
01:10:28.682 : :10 - 01:10:28
01:17:16.923 : :11 - 01:17:16
01:24:23.641 : :12 - 01:24:23
01:32:12.235 : :13 - 01:32:12
01:40:02.329 : :14 - 01:40:02
01:46:35.764 : :15 - 01:46:35
01:54:02.043 : :16 - 01:54:02
01:55:20.900 : :17 - 01:55:20

Related Torrents

Tracker name
udp://tracker.opentrackr.org:1337/announce
udp://eddie4.nl:6969/announce
udp://tracker.coppersurfer.tk:6969/announce
udp://tracker.leechers-paradise.org:6969/announce
udp://tracker.zer0day.to:1337/announce
http://mgtracker.org:2710/announce
http://tracker.internetwarriors.net:1337/announce
http://tracker.opentrackr.org/announce
http://tracker.opentrackr.org:1337/announce
udp://asnet.pw:2710/announce
udp://glotorrents.pw:6969/announce
udp://mgtracker.org:6969/announce
udp://tracker.mgtracker.org:2710/announce
udp://tracker.open-internet.nl:6969/announce
udp://tracker.sktorrent.net:6969/announce
Torrent hash: 8510D0DDD0398DC1806BFB06F859243A0D8C5802

0 Comment

Login to post comments