John Wick: Chapter 3 - Parabellum (2019)Mp-4 X264 1080p AAC[DSD]


0

0
seeders: 19 leechers: 10 updated: 8 months ago
Added 8 months ago in Movies - Highres Movies
Downloaded 3 times.
John Wick: Chapter 3 - Parabellum (2019)Mp-4 X264 1080p AAC[DSD]
Plot:
In this third installment of the adrenaline-fueled action franchise, skilled assassin John Wick (Keanu Reeves) returns with a $14 million price tag on his head and an army of bounty-hunting killers on his trail. After killing a member of the shadowy international assassin's guild, the High Table, John Wick is excommunicado, but the world's most ruthless hit men and women await his every turn.

Files

JOHN_WICK_3__PARABELLUM.Title965.mp4 (1.1 GB)
JOHN_WICK_3__PARABELLUM.Title965.mp4 1.1 GB

Description


[youtube]M7XM597XO94[/youtube]



General
Complete name                            : JOHN_WICK_3__PARABELLUM.Title965.mp4
Format                                   : MPEG-4
Format profile                           : Base Media / Version 2
Codec ID                                 : mp42 (mp42/isom/avc1)
File size                                : 1.12 GiB
Duration                                 : 2 h 10 min
Overall bit rate mode                    : Variable
Overall bit rate                         : 1 224 kb/s
Movie name                               : JOHN_WICK_3__PARABELLUM.Title965
Encoded date                             : UTC 2019-11-12 20:43:00
Tagged date                              : UTC 2019-11-12 21:57:41
Writing application                      : DVDFab 11.0.5.8
Cover                                    : Yes

Video
ID                                       : 1
Format                                   : AVC
Format/Info                              : Advanced Video Codec
Format profile                           : [email protected]
Format settings                          : CABAC / 2 Ref Frames
Format settings, CABAC                   : Yes
Format settings, RefFrames               : 2 frames
Format settings, GOP                     : M=1, N=24
Codec ID                                 : avc1
Codec ID/Info                            : Advanced Video Coding
Duration                                 : 2 h 10 min
Source duration                          : 2 h 10 min
Bit rate mode                            : Variable
Bit rate                                 : 1 026 kb/s
Maximum bit rate                         : 1 554 kb/s
Width                                    : 720 pixels
Height                                   : 300 pixels
Display aspect ratio                     : 2.40:1
Frame rate mode                          : Constant
Frame rate                               : 23.976 (24000/1001) FPS
Color space                              : YUV
Chroma subsampling                       : 4:2:0
Bit depth                                : 8 bits
Scan type                                : Progressive
Bits/(Pixel*Frame)                       : 0.198
Stream size                              : 960 MiB (84%)
Source stream size                       : 960 MiB (84%)
Encoded date                             : UTC 2019-11-12 20:43:00
Tagged date                              : UTC 2019-11-12 21:57:40
Color primaries                          : BT.601 NTSC
Transfer characteristics                 : BT.709
Matrix coefficients                      : BT.601
Menus                                    : 5

Audio
ID                                       : 2
Format                                   : AAC
Format/Info                              : Advanced Audio Codec
Format profile                           : LC
Codec ID                                 : mp4a-40-2
Duration                                 : 2 h 10 min
Bit rate mode                            : Variable
Bit rate                                 : 192 kb/s
Maximum bit rate                         : 196 kb/s
Channel(s)                               : 2 channels
Channel positions                        : Front: L R
Sampling rate                            : 48.0 kHz
Frame rate                               : 46.875 FPS (1024 SPF)
Compression mode                         : Lossy
Stream size                              : 180 MiB (16%)
Title                                    : English (aac 2.0)
Language                                 : English
Default                                  : Yes
Alternate group                          : 1
Encoded date                             : UTC 2019-11-12 20:43:00
Tagged date                              : UTC 2019-11-12 21:57:41

Text #1
ID                                       : 3
Format                                   : VobSub
Codec ID                                 : mp4s-E0
Codec ID/Info                            : The same subtitle format used on DVDs
Duration                                 : 2 h 1 min
Bit rate mode                            : Variable
Bit rate                                 : 1 124 b/s
Maximum bit rate                         : 4 249 Mb/s
Stream size                              : 1 003 KiB (0%)
Language                                 : English
Default                                  : Yes
Forced                                   : No
Alternate group                          : 2
Encoded date                             : UTC 2019-11-12 20:43:00
Tagged date                              : UTC 2019-11-12 21:54:12

Related Torrents

Tracker name
udp://tracker.openbittorrent.com:80/announce
udp://tracker.opentrackr.org:1337/announce
udp://tracker.coppersurfer.tk:6969/announce
udp://9.rarbg.to:2710/announce
Torrent hash: 9C24069446AE7DD6C35E3A67F5E97910CB72B701

0 Comment

Login to post comments