Kajillionaire 2020 HDRip XviD B4ND1T69


0

0
seeders: 4 leechers: 11 updated: 2 days ago
Added 2 days ago in Movies
Downloaded 3 times.
Kajillionaire 2020 HDRip XviD B4ND1T69
Plot:
A woman's life is turned upside down when her criminal parents invite an outsider to join them on a major heist they're planning.

Available in versions:
WEB-DL 720p 1080p Unknown

Files

Downloaded from ProStyleX.txt (666.1 MB)
Downloaded from ProStyleX.txt 102 B
Downloaded from ETTV.txt 102 B
Downloaded from 1337x.txt 102 B
Downloaded from newkatcr.co.txt 102 B
Pirates Beware !!!.txt 204 B
Kajillionaire.2020.HDRip.XviD.B4ND1T69.srt 115.5 KB
Kajillionaire.2020.HDRip.XviD.B4ND1T69.avi 666 MB

Description

Kajillionaire.2020.HDRip.XviD.B4ND1T69



Director: Miranda July
Writer: Miranda July
Stars: Evan Rachel Wood, Gina Rodriguez, Debra Winger

Plot/Story:
A woman's life is turned upside down when her criminal parents invite an outsider to join them on a major heist they're planning.

General
Complete name : Kajillionaire.2020.HDRip.XviD.B4ND1T69.avi
Format : AVI
Format/Info : Audio Video Interleave
File size : 666 MiB
Duration : 1 h 44 min
Overall bit rate : 888 kb/s
Subtitles : Yes...Included(HI)

Video
ID : 0
Format : MPEG-4 Visual
Format profile : Advanced [email protected]
Format settings, BVOP : 2
Format settings, QPel : No
Format settings, GMC : No warppoints
Format settings, Matrix : Default (H.263)
Codec ID : XVID
Codec ID/Hint : XviD
Duration : 1 h 44 min
Bit rate : 747 kb/s
Width : 720 pixels
Height : 304 pixels
Display aspect ratio : 2.35:1
Frame rate : 23.976 (24000/1001) FPS
Color space : YUV
Chroma subsampling : 4:2:0
Bit depth : 8 bits
Scan type : Progressive
Compression mode : Lossy
Bits/(Pixel*Frame) : 0.142
Stream size : 560 MiB (84%)
Writing library : XviD 64

Audio
ID : 1
Format : MPEG Audio
Format version : Version 1
Format profile : Layer 3
Codec ID : 55
Codec ID/Hint : MP3
Duration : 1 h 44 min
Bit rate mode : Constant
Bit rate : 128 kb/s
Channel(s) : 2 channels
Sampling rate : 48.0 kHz
Compression mode : Lossy
Stream size : 96.0 MiB (14%)
Alignment : Aligned on interleaves
Interleave, duration : 24 ms (0.58 video frame)

Screenshots:










Please Seed For As Long As Possible
Or At Least 1:1 Ratio...Thanks
Enjoy Peeps

Related Torrents

Tracker name
udp://tracker.coppersurfer.tk:6969/announce
udp://tracker.leechers-paradise.org:6969/announce
udp://9.rarbg.to:2910/announce
udp://tracker.opentrackr.org:1337/announce
udp://open.stealth.si:80/announce
udp://exodus.desync.com:6969/announce
udp://tracker.uw0.xyz:6969/announce
udp://tracker.tiny-vps.com:6969/announce
udp://tracker.zer0day.to:1337/announce
udp://tracker.leechers-paradise.org:6969/announce
udp://coppersurfer.tk:6969/announce
Torrent hash: BC63C933B4030BF98E31C232ED394B24798E810D

0 Comment

Login to post comments