Laxmii Bomb (2020) Hindi 720p WEBDL x264 AAC ESub


0

0
seeders: 3407 leechers: 323 updated: 1 week ago
Added 2 weeks ago in Movies - Bollywood
Downloaded 2376 times.
Laxmii Bomb (2020) Hindi 720p WEBDL x264 AAC ESub

Files

Laxmii Bomb (2020) Hindi 720p WEBDL x264 AAC. ESub.mkv (1.4 GB)
Laxmii Bomb (2020) Hindi 720p WEBDL x264 AAC. ESub.mkv 1.4 GB

Description



Laxmii Bomb (2020):

यह फ़िल्म एक भूत से जुड़ी है जो अन्याय के लिए प्रतिशोध की मांग करता है और घर में रहने वाले हर किसी को सताता है.
Akshay Kumar in a never seen before avatar as a man possessed by a transgender ghost.

Directors: Lawrence Raghavendra

Stars: Akshay Kumar, Kiara Advani, Sharad Kelkar.

Format : Matroska
Format version : Version 4
File size : 1.40 GiB
Duration : 2 h 21 min
Overall bit rate : 1 425 kb/s

Video
ID : 1
Format : AVC
Format/Info : Advanced Video Codec
Format profile : [email protected]
Format settings : CABAC / 5 Ref Frames
Format settings, CABAC : Yes
Format settings, Reference frames : 5 frames
Format settings, GOP : M=4, N=48
Codec ID : V_MPEG4/ISO/AVC
Duration : 2 h 21 min
Bit rate : 1 300 kb/s
Width : 1 280 pixels
Height : 720 pixels
Display aspect ratio : 16:9
Frame rate mode : Constant
Frame rate : 24.000 FPS
Color space : YUV
Chroma subsampling : 4:2:0
Bit depth : 8 bits
Scan type : Progressive
Bits/(Pixel*Frame) : 0.059
Stream size : 1.28 GiB (91%)
Audio
ID : 2
Format : AAC LC
Format/Info : Advanced Audio Codec Low Complexity
Codec ID : A_AAC-2
Duration : 2 h 21 min
Bit rate : 126 kb/s
Channel(s) : 2 channels
Channel layout : L R
Sampling rate : 44.1 kHz
Frame rate : 43.066 FPS (1024 SPF)
Compression mode : Lossy
Stream size : 127 MiB (9%)
Language : Hindi
Default : Yes
Forced : No

Text
ID : 3
Format : UTF-8
Codec ID : S_TEXT/UTF8
Codec ID/Info : UTF-8 Plain Text
Duration : 2 h 15 min
Bit rate : 44 b/s
Count of elements : 1631
Stream size : 44.0 KiB (0%)
Language : English
Default : Yes
Forced : No

Related Torrents

Tracker name
udp://exodus.desync.com:6969/announce
udp://explodie.org:6969/announce
udp://tracker.tiny-vps.com:6969/announce
udp://tracker.torrent.eu.org:451/announce
udp://ipv4.tracker.harry.lu:80/announce
http://explodie.org:6969/announce
http://tracker.opentrackr.org:1337/announce
udp://9.rarbg.to:2800/announce
http://tracker3.itzmx.com:6961/announce
http://tracker1.itzmx.com:8080/announce
http://t.nyaatracker.com:80/announce
udp://open.stealth.si:80/announce
UDP://TRACKER.COPPERSURFER.TK:6969/ANNOUNCE
UDP://TRACKER.OPENTRACKR.ORG:1337/ANNOUNCE
udp://tracker.zer0day.to:1337/announce
udp://tracker.leechers-paradise.org:6969/announce
udp://coppersurfer.tk:6969/announce
Torrent hash: 96BF529A0B875ED96D4061623026703D23CB7F98

0 Comment

Login to post comments