Marjaavaan (2019) Hindi NEW Source 720p HDCAM x264 AAC ⭐No LOGO⭐ Shadow[HDWebMov


0

0
seeders: 2420 leechers: 218 updated: 10 months ago
Added 11 months ago in Movies - Bollywood
Downloaded 69 times.
Marjaavaan (2019) Hindi NEW Source 720p HDCAM x264 AAC ⭐No LOGO⭐ Shadow[HDWebMov
  • Release date: 15 Nov 2019
  • Release year: 2019
  • Runtime: 152 mintues
  • Country: India
Plot:
Marjaavaan is an upcoming Indian action romance film directed by Milap Zaveri starring Ritesh Deshmukh, Sidharth Malhotra, Tara Sutaria and Rakul Preet Singh. The co producer of the film Bhushan Kumar described the film as "a violent, dramatic love story".

Available in versions:
WEB-DL WEBRip x265 720p 1080p

Files

Marjaavaan (2019) Hindi NEW Source 720p HDCAM x264 AAC [No LOGO] Shadow[HDWebMovies].mkv (1 GB)
Marjaavaan (2019) Hindi NEW Source 720p HDCAM x264 AAC [No LOGO] Shadow[HDWebMovies].mkv 1 GB

Description




Visit Our Site https://hdwebmovies.xyz







Marjaavaan (2019) Hindi NEW Source 720p HDCAM x264 AAC [No LOGO] Shadow[HDWebMovies]









Special Thanks To ClouD9













Movie Info





Name - Marjaavaan (2019)



Storyline - Raghu and Zoya are enjoying their lives together until a gang leader with harmful intentions turns their world upside down

IMDB : https://www.imdb.com/title/tt9248934/


Directors: Milap Zaveri

Stars : Riteish Deshmukh, Sidharth Malhotra, Tara Sutaria |


Release date : 15 November 2019 (UK)

File size : 1.1

Encoded by Team ClouD9





Credit goes to - Team Shàdów (HDwebmovies)











[font=Comic Sans MS]General
Unique ID : 247087790709590701569436882646228745816 (0xB9E360A3F8BD89848F5918A478633E58)
Complete name : D:\movies\Stuber (2019) UNTOUCHED 720p BluRay x264 Dual Audio [Hindi 5.1 + English 2.0] ESub (SHADOW) [HDWebMovies]\Stuber (2019) UNTOUCHED 720p BluRay x264 Dual Audio [Hindi 5.1 + English 2.0] ESub (SHADOW) [HDWebMovies].mkv
Format : Matroska
Format version : Version 4
File size : 936 MiB
Duration : 1 h 33 min
Overall bit rate : 1 402 kb/s
Movie name : Stuber (2019) UNTOUCHED 720p BluRay x264 Dual Audio [Hindi 5.1 + English 5.1] ESub (SHADOW) [HDWebMovies]
Encoded date : UTC 2019-11-14 10:12:45
Writing application : mkvmerge v8.2.0 ('World of Adventure') 32bit
Writing library : libebml v1.3.1 + libmatroska v1.4.2

Video
ID : 1
Format : AVC
Format/Info : Advanced Video Codec
Format profile : [email protected]
Format settings : CABAC / 8 Ref Frames
Format settings, CABAC : Yes
Format settings, Reference frames : 8 frames
Codec ID : V_MPEG4/ISO/AVC
Duration : 1 h 33 min
Bit rate : 1 193 kb/s
Width : 1 280 pixels
Height : 536 pixels
Display aspect ratio : 2.40:1
Frame rate mode : Constant
Frame rate : 23.976 (24000/1001) FPS
Color space : YUV
Chroma subsampling : 4:2:0
Bit depth : 8 bits
Scan type : Progressive
Bits/(Pixel*Frame) : 0.073
Stream size : 797 MiB (85%)
Title : [HDWebMovies]
Writing library : x264 core 155 r2901 7d0ff22
Encoding settings : cabac=1 / ref=8 / deblock=1:-2:-2 / analyse=0x3:0x133 / me=umh / subme=10 / psy=1 / psy_rd=1.00:0.15 / mixed_ref=1 / me_range=32 / chroma_me=1 / trellis=2 / 8x8dct=1 / cqm=0 / deadzone=21,11 / fast_pskip=1 / chroma_qp_offset=-3 / threads=17 / lookahead_threads=1 / sliced_threads=0 / nr=0 / decimate=1 / interlaced=0 / bluray_compat=0 / constrained_intra=0 / bframes=3 / b_pyramid=2 / b_adapt=2 / b_bias=0 / direct=3 / weightb=1 / open_gop=0 / weightp=2 / keyint=250 / keyint_min=23 / scenecut=40 / intra_refresh=0 / rc_lookahead=60 / rc=2pass / mbtree=1 / bitrate=1193 / ratetol=1.0 / qcomp=0.60 / qpmin=0 / qpmax=69 / qpstep=4 / cplxblur=20.0 / qblur=0.5 / vbv_maxrate=15500 / vbv_bufsize=16000 / nal_hrd=none / filler=0 / ip_ratio=1.40 / aq=3:0.80
Default : Yes
Forced : No

Audio #1
ID : 2
Format : AAC LC
Format/Info : Advanced Audio Codec Low Complexity
Codec ID : A_AAC-2
Duration : 1 h 33 min
Bit rate : 128 kb/s
Channel(s) : 6 channels
Channel layout : C L R Ls Rs LFE
Sampling rate : 48.0 kHz
Frame rate : 46.875 FPS (1024 SPF)
Compression mode : Lossy
Delay relative to video : 10 ms
Stream size : 85.5 MiB (9%)
Title : [HDWebMovies]
Language : Hindi
Default : Yes
Forced : No

Audio #2
ID : 3
Format : AAC LC
Format/Info : Advanced Audio Codec Low Complexity
Codec ID : A_AAC-2
Duration : 1 h 33 min
Bit rate : 78.0 kb/s
Channel(s) : 2 channels
Channel layout : L R
Sampling rate : 48.0 kHz
Frame rate : 46.875 FPS (1024 SPF)
Compression mode : Lossy
Delay relative to video : 9 ms
Stream size : 52.1 MiB (6%)
Title : [HDWebMovies]
Language : English
Default : No
Forced : No

Text
ID : 4
Format : UTF-8
Codec ID : S_TEXT/UTF8
Codec ID/Info : UTF-8 Plain Text
Duration : 1 h 26 min
Bit rate : 84 b/s
Count of elements : 1967
Stream size : 54.0 KiB (0%)
Title :
Language : English
Default : No
Forced : No
[/font]






















Related Torrents

Tracker name
udp://tracker.coppersurfer.tk:6969/announce
udp://tracker.opentrackr.org:1337/announce
http://tracker1.itzmx.com:8080/announce
udp://tracker.cyberia.is:6969/announce
udp://bt.firebit.co.uk:6969/announce
udp://tracker.leechers-paradise.org:6969/announce
udp://tracker.tiny-vps.com:6969/announce
udp://9.rarbg.com:2710/announce
udp://9.rarbg.me:2730/announce
udp://tracker.pirateparty.gr:6969/announce
Torrent hash: D544921B0AFE65F2B260AE7C5AE3DD6A5FEECB1E

0 Comment

Login to post comments