Ready Player One (2018) x 1616 (2160p) HDR 5 1 x265 10bit Phun Psyz


0

0
seeders: 0 leechers: 8 updated: 1 month ago
Added 2 years ago in Movies - UltraHD
Downloaded 19 times.
Ready Player One (2018) x 1616 (2160p) HDR 5 1 x265 10bit Phun Psyz
  • Release date: 29 Mar 2018
  • Release year: 2018
  • Runtime: 140 mintues
  • Country: USA, India
  • Keywords: capitalism, tattooed trash, mini skirt, slit skirt, thin woman
  • Budget: $175,000,000
Plot:
In the year 2045, the real world is a harsh place. The only time Wade Watts (Tye Sheridan) truly feels alive is when he escapes to the OASIS, an immersive virtual universe where most of humanity spends their days. In the OASIS, you can go anywhere, do anything, be anyone-the only limits are your own imagination. The OASIS was created by the brilliant and eccentric James Halliday (Mark Rylance), who left his immense fortune and total control of the Oasis to the winner of a three-part contest he designed to find a worthy heir. When Wade conquers the first challenge of the reality-bending treasure hunt, he and his friends-aka the High Five-are hurled into a fantastical universe of discovery and danger to save the OASIS.

Available in versions:
Other Telesync WEB-DL BDRip x264 x265 480p 720p 1080p 4k

Files

Ready Player One (2018) x 1616 (2160p) HDR 5.1 x265 10bit Phun Psyz.mkv (4.71 GB)
Ready Player One (2018) x 1616 (2160p) HDR 5.1 x265 10bit Phun Psyz.mkv 4.71 GB

Description

www.imdb.com/title/tt1677720/

When the creator of a virtual reality world called the OASIS dies, he releases a video in which he challenges all OASIS users to find his Easter Egg, which will give the finder his fortune.

Source: FGT (HDR) (78.2 GiB)



Format : Matroska
Format version : Version 4 / Version 2
File size : 4.71 GiB
Duration : 2 h 19 min
Overall bit rate : 4 814 kb/s

Video
ID : 1
Format : HEVC
Format/Info : High Efficiency Video Coding
Format profile : Main [email protected]@High
Codec ID : V_MPEGH/ISO/HEVC
Duration : 2 h 19 min
Bit rate : 4 398 kb/s
Width : 3 840 pixels
Height : 1 616 pixels
Display aspect ratio : 2.40:1
Frame rate mode : Constant
Frame rate : 23.976 (24000/1001) FPS
Color space : YUV
Chroma subsampling : 4:2:0
Bit depth : 10 bits
Bits/(Pixel*Frame) : 0.030
Stream size : 4.30 GiB (91%)
Writing library : x265 2.6:[Windows][GCC 7.1.0][64 bit] 10bit

Audio
ID : 2
Format : AC-3
Format/Info : Audio Coding 3
Format settings, Endianness : Big
Codec ID : A_AC3
Duration : 2 h 19 min
Bit rate mode : Constant
Bit rate : 320 kb/s
Channel(s) : 6 channels
Channel positions : Front: L C R, Side: L R, LFE
Sampling rate : 48.0 kHz
Frame rate : 31.250 FPS (1536 SPF)
Bit depth : 16 bits
Compression mode : Lossy
Stream size : 320 MiB (7%)
Title : Surround
Language : English

Text
Language : English
Language : French
Language : Italian
Language : Chinese
Language : Chinese
Language : Korean
Language : Spanish
Language : Portuguese
Language : Arabic
Language : Czech
Language : Danish
Language : Finnish
Language : Hungarian
Language : Norwegian
Language : Polish
Language : Romanian
Language : Russian
Language : Swedish
Language : Thai
Language : Turkish
Language : French
Language : Italian
Language : Spanish
Language : Portuguese
Language : Czech
Language : Hungarian
Language : Polish
Language : Russian
Language : Thai
Language : Turkish
Default : No
Forced : No

Related Torrents

Tracker name
http://tracker.internetwarriors.net:1337/announce
http://tracker2.wasabii.com.tw:6969/announce
http://tracker.trackerfix.com/announce
http://tracker.opentrackr.org/announce
http://mgtracker.org:2710/announce
udp://explodie.org:6969/announce
udp://mgtracker.org:6969/announce
udp://asnet.pw:2710/announce
udp://tracker.mgtracker.org:2710/announce
udp://tracker.trackerfix.com:80/announce
udp://tracker.pirateparty.gr:6969/announce
udp://tracker.cypherpunks.ru:6969/announce
udp://castradio.net:6969/announce
udp://tracker.tiny-vps.com:6969/announce
udp://tracker.sktorrent.net:6969/announce
udp://tracker.blackunicorn.xyz:6969/announce
udp://tracker.0o.is:6969/announce
udp://glotorrents.pw:6969/announce
udp://tracker.internetwarriors.net:1337/announce
udp://shadowshq.yi.org:6969/announce
udp://tracker.vanitycore.co:6969/announce
udp://tracker.zer0day.to:1337/announce
udp://tracker.opentrackr.org:1337/announce
udp://eddie4.nl:6969/announce
udp://p4p.arenabg.ch:1337/announce
udp://public.popcorn-tracker.org:6969/announce
udp://inferno.demonoid.pw:3418/announce
udp://tracker.open-internet.nl:6969/announce
udp://9.rarbg.me:2710/announce
udp://9.rarbg.to:2710/announce
udp://tracker.coppersurfer.tk:6969/announce
udp://tracker.leechers-paradise.org:6969/announce
udp://tracker.torrent.eu.org:451/announce
http://mgtracker.org:6969/announce
udp://inferno.demonoid.pw:3391/announce
udp://tracker.coppersurfer.tk:80/announce
udp://9.rarbg.to:2730/announce
udp://9.rarbg.to:2790/announce
udp://9.rarbg.me:2740/announce
udp://9.rarbg.me:2770/announce
udp://tracker.torrent.eu.org:451
udp://IPv6.open-internet.nl:6969/announce
udp://denis.stalker.upeer.me:1337/announce
udp://tracker.mg64.net:6969/announce
udp://tracker.cyberia.is:6969/announce
udp://ipv6.tracker.harry.lu:80/announce
http://open.acgnxtracker.com/announce
http://bt.acg.gg:1578/announce
http://tracker2.itzmx.com:8080/announce
http://tracker3.itzmx.com:8080/announce
http://68.64.165.106:2710/announce
http://retracker.spb.ru/announce
http://tracker.tfile.co:80/announce
udp://tracker.port443.xyz:6969/announce
http://0d.kebhana.mx:443/announce
http://retracker.spb.ru:80/announce
udp://open.demonii.si:1337/announce
udp://tracker.qt.is:6969/announce
http://peersteers.org:80/announce
https://tracker.torrentsnows.com:443/announce
http://tracker.tfile.me:80/announce
https://open.acgnxtracker.com:443/announce
udp://seedbay.net:2710/announce
udp://tracker.ds.is:6969/announce
udp://exodus.desync.com:6969/announce
udp://torr.ws:2710/announce
udp://tracker.justseed.it:1337/announce
udp://thetracker.org:80/announce
udp://retracker.lanta-net.ru:2710/announce
udp://ipv4.tracker.harry.lu:80/announce
http://t.nyaatracker.com:80/announce
http://share.camoe.cn:8080/announce
http://retracker.telecom.by:80/announce
udp://bt.xxx-tracker.com:2710/announce
udp://open.stealth.si:80/announce
http://retracker.mgts.by:80/announce
http://tracker.city9x.com:2710/announce
udp://tracker.acg.gg:2710/announce
Torrent hash: EA88D7CAC69BBEF98D1F0AB6359F488B470F11D8

0 Comment

Login to post comments