Rush - Permanent Waves (1980) (PBTHAL LP 24-96) [FLAC] vtwin88cube


0

0
seeders: 24 leechers: 4 updated: 4 days ago
Added 2 weeks ago in Music - Lossless
Downloaded 2 times.
Rush - Permanent Waves (1980) (PBTHAL LP 24-96) [FLAC] vtwin88cube

Files

00.-Rush - Permanent Waves.m3u (770.7 MB)
00.-Rush - Permanent Waves.m3u 102 B
01.-The Spirit Of Radio.flac 109.2 MB
02.-Freewill.flac 119.6 MB
03.-Jacob's Ladder.flac 157.9 MB
04.-Entre Nous.flac 101.6 MB
05.-Different Strings.flac 80.8 MB
06.-Natural Science.flac 201.5 MB
DR13.txt 1.1 KB
folder.jpg 229.7 KB
lineage.txt 512 B

Description

Rush
Permanent Waves (1980)
FLAC LOSSLESS 24bit-96kHz
MFSL PBTHAL Vinyl Rip


allmusic.com...

Since Neil Peart joined the band in time for 1975's Fly by Night, Rush had been experimenting and growing musically with each successive release. By 1980's Permanent Waves, the modern sounds of new wave (the Police, Peter Gabriel, etc.) began to creep into Rush's sound, but the trio still kept their hard rock roots intact. The new approach paid off -- two of their most popular songs, the "make a difference" anthem "Freewill," and a tribute to the Toronto radio station CFNY, "The Spirit of Radio" (the latter a U.K. Top 15 hit), are spectacular highlights. Also included were two "epics," the stormy "Jacob's Ladder" and the album-closing "Natural Science," which contains a middle section that contains elements of reggae. Geddy Lee also began singing in a slightly lower register around this time, which made their music more accessible to fans outside of the heavy prog rock circle. The album proved to be the final breakthrough Rush needed to become an arena headliner throughout the world, beginning a string of albums that would reach inside the Top Five of the U.S. Billboard album charts. Permanent Waves is an undisputed hard rock classic that endures.


foobar2000 1.4.3 / Dynamic Range Meter 1.1.1
log date: 2020-11-05 10:49:13

--------------------------------------------------------------------------------
Analyzed: Rush / Permanent Waves
--------------------------------------------------------------------------------

DR Peak RMS Duration Track
--------------------------------------------------------------------------------
DR12 -1.83 dB -15.57 dB 4:58 01-The Spirit Of Radio
DR13 -1.00 dB -15.76 dB 5:25 02-Freewill
DR12 -2.41 dB -18.07 dB 7:30 03-Jacob's Ladder
DR13 -2.95 dB -17.22 dB 4:37 04-Entre Nous
DR14 -1.92 dB -20.27 dB 3:49 05-Different Strings
DR14 -1.00 dB -17.84 dB 9:16 06-Natural Science

Number of tracks: 6
Official DR value: DR13

Samplerate: 96000 Hz
Channels: 2
Bits per sample: 24
Bitrate: 3035 kbps
Codec: FLAC





Support the artists...
buy it if you like it!

Thanks for Seeding!
Cheers! ;)

Related Torrents

Tracker name
udp://tracker.openbittorrent.com:80/announce
udp://exodus.desync.com:6969/announce
udp://denis.stalker.upeer.me:6969/announce
udp://tracker.torrent.eu.org:451/announce
udp://tracker.coppersurfer.tk:6969/announce
udp://tracker.internetwarriors.net:1337/announce
udp://explodie.org:6969/announce
udp://tracker.leechers-paradise.org:6969/announce
http://tracker.opentrackr.org:1337/announce
udp://tracker.zer0day.to:1337/announce
udp://tracker.leechers-paradise.org:6969/announce
udp://coppersurfer.tk:6969/announce
Torrent hash: 35C6A8BC7B647DDBE9CF26EEB271DAB5295CC83A

0 Comment

Login to post comments