Siberia (2018) ITA-ENG Ac3 5 1 BDRip 1080p H264 [ArMor]


0

0
seeders: 1 leechers: 11 updated: 3 days ago
Added 3 days ago in Movies - Highres Movies
Downloaded 5 times.
Siberia (2018) ITA-ENG Ac3 5 1 BDRip 1080p H264 [ArMor]
  • Release date: 13 Jul 2018
  • Release year: 2018
  • Runtime: 104 mintues
  • Country: Canada, USA
Plot:
An American diamond merchant travels to Russia to sell rare blue diamonds of questionable origin. As the deal begins to collapse he falls into an obsessive relationship with a Russian cafe owner in a small Siberian town. As their passion builds, so does the treacherous world of the diamond trade from which he is unable to extricate himself. Both collide as the American man desperately looks for escape in a world with no exit.

Available in versions:
WEB-DL BDRip 720p 1080p

Files

Siberia (2018) ITA-ENG Ac3 5.1 BDRip 1080p H264 [ArMor].mkv (4 GB)
Siberia (2018) ITA-ENG Ac3 5.1 BDRip 1080p H264 [ArMor].mkv 4 GB
Siberia.2018.ITA-ENG.Bluray.1080p_ita.srt 58 KB
cgvmgngcvghdret4rwr3t2iu7i.jpg 134.2 KB

Description







Regista: Matthew Ross
Genere: Sentimentale, Thriller
Anno: 2018
Paese: USA
Data di uscita: N.D.



Keanu Reeves, Molly Ringwald, Ana Ularu, Aleks Paunovic, Veronica Ferres, Eugene Lipinski, Dmitry Chepovetsky



Quando un partner russo di commercianti di diamanti americani scompare, si reca in Siberia in cerca di lui, ma invece inizia una storia d'amore.



When an American diamond trader's Russian partner goes missing, he journeys to Siberia in search of him, but instead begins a love affair.












General
Unique ID : 230183172585372555412050604617489195604 (0xAD2BAA9E4707C1E28D453821CF402254)
Complete name : Siberia (2018) ITA-ENG Ac3 5.1 BDRip 1080p H264 [ArMor].mkv
Format : Matroska
Format version : Version 4
File size : 4.01 GiB
Duration : 1 h 39 min
Overall bit rate : 5 741 kb/s
Encoded date : UTC 2020-11-21 17:58:03
Writing application : mkvmerge v15.0.0 ('Duel with the Devil') 64-bit
Writing library : libebml v1.3.5 + libmatroska v1.4.5 / Lavf58.29.100

Video
ID : 1
Format : AVC
Format/Info : Advanced Video Codec
Format profile : [email protected]
Format settings : CABAC / 4 Ref Frames
Format settings, CABAC : Yes
Format settings, Reference frames : 4 frames
Codec ID : V_MPEG4/ISO/AVC
Duration : 1 h 39 min
Bit rate : 5 000 kb/s
Width : 1 920 pixels
Height : 800 pixels
Display aspect ratio : 2.40:1
Frame rate mode : Constant
Frame rate : 25.000 FPS
Color space : YUV
Chroma subsampling : 4:2:0
Bit depth : 8 bits
Scan type : Progressive
Bits/(Pixel*Frame) : 0.130
Stream size : 3.38 GiB (84%)
Writing library : x264 core 157 r2935 545de2f
Encoding settings : cabac=1 / ref=2 / deblock=1:0:0 / analyse=0x1:0x111 / me=hex / subme=6 / psy=1 / psy_rd=1.00:0.00 / mixed_ref=1 / me_range=16 / chroma_me=1 / trellis=1 / 8x8dct=0 / cqm=0 / deadzone=21,11 / fast_pskip=1 / chroma_qp_offset=-2 / threads=18 / lookahead_threads=3 / sliced_threads=0 / nr=0 / decimate=1 / interlaced=0 / bluray_compat=0 / constrained_intra=0 / bframes=3 / b_pyramid=2 / b_adapt=1 / b_bias=0 / direct=1 / weightb=1 / open_gop=0 / weightp=1 / keyint=250 / keyint_min=25 / scenecut=40 / intra_refresh=0 / rc_lookahead=30 / rc=abr / mbtree=1 / bitrate=5000 / ratetol=1.0 / qcomp=0.60 / qpmin=0 / qpmax=69 / qpstep=4 / vbv_maxrate=20000 / vbv_bufsize=25000 / nal_hrd=none / filler=0 / ip_ratio=1.40 / aq=1:1.00
Default : Yes
Forced : No
Color range : Limited
Color primaries : BT.709
Transfer characteristics : BT.709
Matrix coefficients : BT.709

Audio #1
ID : 2
Format : AC-3
Format/Info : Audio Coding 3
Commercial name : Dolby Digital
Codec ID : A_AC3
Duration : 1 h 39 min
Bit rate mode : Constant
Bit rate : 448 kb/s
Channel(s) : 6 channels
Channel layout : L R C LFE Ls Rs
Sampling rate : 48.0 kHz
Frame rate : 31.250 FPS (1536 SPF)
Compression mode : Lossy
Stream size : 320 MiB (8%)
Title : DTS
Language : Italian
Service kind : Complete Main
Default : Yes
Forced : No

Audio #2
ID : 3
Format : AC-3
Format/Info : Audio Coding 3
Commercial name : Dolby Digital
Codec ID : A_AC3
Duration : 1 h 39 min
Bit rate mode : Constant
Bit rate : 448 kb/s
Channel(s) : 6 channels
Channel layout : L R C LFE Ls Rs
Sampling rate : 48.0 kHz
Frame rate : 31.250 FPS (1536 SPF)
Compression mode : Lossy
Stream size : 320 MiB (8%)
Title : DTS
Language : English
Service kind : Complete Main
Default : No
Forced : No





Related Torrents

Tracker name
udp://tracker.coppersurfer.tk:6969/announce
udp://tracker.leechers-paradise.org:6969/announce
udp://9.rarbg.to:2710/announce
udp://exodus.desync.com:6969/announce
udp://tracker.uw0.xyz:6969/announce
udp://open.stealth.si:80/announce
udp://tracker.tiny-vps.com:6969/announce
udp://open.demonii.si:1337/announce
udp://tracker.cyberia.is:6969/announce
udp://tracker.kamigami.org:2710/announce
udp://opentor.org:2710/announce[/fo
udp://opentracker.i2p.rocks:6969/announce
udp://tracker.zerobytes.xyz:1337/announce
udp://aaa.army:8866/announce
udp://tracker.zer0day.to:1337/announce
udp://tracker.leechers-paradise.org:6969/announce
udp://coppersurfer.tk:6969/announce
Torrent hash: C08B009DCD8C84D63C7EB61372CC32B5B8FDCF2F

0 Comment

Login to post comments