Supernatural S06E04 720p HDTV x264 Dual Audio-By_Beto™


0

0
seeders: 0 leechers: 0
Added 8 years ago in TV
Downloaded 0 time.
Supernatural S06E04 720p HDTV x264 Dual Audio-By_Beto™

Description

Supernatural.S06E04.720p.HDTV.x264.Dual.Audio-By_Beto™ Video ID : 1 Format : AVC Format/Info : Advanced Video Codec Format profile : [email protected] Format settings, CABAC : Yes Format settings, ReFrames : 3 frames Codec ID : V_MPEG4/ISO/AVC Duration : 40mn 30s Bit rate : 3 524 Kbps Width : 1 280 pixels Height : 720 pixels Display aspect ratio : 16:9 Frame rate : 23.976 fps Color space : YUV Chroma subsampling : 4:2:0 Bit depth : 8 bits Scan type : Progressive Bits/(Pixel*Frame) : 0.159 Stream size : 984 MiB (82%) Title : Supernatural.S06E04 Writing library : x264 core 88 r1471 1144615 Language : English Audio #1 ID : 2 Format : MPEG Audio Format version : Version 1 Format profile : Layer 3 Codec ID : A_MPEG/L3 Codec ID/Hint : MP3 Duration : 40mn 30s Bit rate mode : Constant Bit rate : 256 Kbps Channel(s) : 2 channels Sampling rate : 44.1 KHz Compression mode : Lossy Stream size : 74.2 MiB (6%) Title : Português-By_Beto™ Language : Portuguese Audio #2 ID : 3 Format : AC-3 Format/Info : Audio Coding 3 Mode extension : CM (complete main) Codec ID : A_AC3 Duration : 40mn 30s Bit rate mode : Constant Bit rate : 384 Kbps Channel(s) : 6 channels Channel positions : Front: L C R, Side: L R, LFE Sampling rate : 48.0 KHz Bit depth : 16 bits Compression mode : Lossy Stream size : 111 MiB (9%) Title : English-By_Beto™ Language : English

Related Torrents

Tracker name
udp://tracker.coppersurfer.tk:6969/announce
udp://9.rarbg.me:2850/announce
udp://9.rarbg.to:2920/announce
udp://tracker.opentrackr.org:1337
udp://tracker.leechers-paradise.org:6969/announce
Torrent hash: 26828587C4D4FF9853D9F996F3415984E0CC4B30

0 Comment

Login to post comments