The Dirt (2019) 720p H264 italian english Ac3-5 1 sub eng ita-MIRCrew


0

0
seeders: 274 leechers: 90 updated: 1 year ago
Added 1 year ago in Movies - Highres Movies
Downloaded 34 times.
The Dirt (2019) 720p H264 italian english Ac3-5 1 sub eng ita-MIRCrew
Plot:
Based on Mötley Crüe's 2001 best-selling autobiography, THE DIRT is an unflinching story about sex, drugs, rock 'n roll, fame, and the high price of excess. Director Jeff Tremaine shows us just how Nikki Sixx (Douglas Booth), Mick Mars (Iwan Rheon), Tommy Lee (Colson Baker), and Vince Neil (Daniel Webber) took Mötley Crüe from the Sunset Strip to the world stage, and what it meant to become the world's most notorious rock band.

Available in versions:
WEB-DL WEBRip x264 720p 1080p 2160p Unknown

Files

The Dirt (2019).720p.h264.ita.eng.sub.ita.eng-MIRcrew.eng.srt (2 GB)
The Dirt (2019).720p.h264.ita.eng.sub.ita.eng-MIRcrew.eng.srt 137 KB
The Dirt (2019).720p.h264.ita.eng.sub.ita.eng-MIRcrew.ita.srt 93.3 KB
The Dirt (2019).720p.h264.ita.eng.sub.ita.eng-MIRcrew.mkv 2 GB
The Dirt (2019).720p.h264.ita.eng.sub.ita.eng-MIRcrew.srt 4.2 KB

Description

The Dirt (2019).720p.H264.italian.english.Ac3-5.1.sub.eng.ita-MIRCrew


NO FOUND ONLY ORIGINAL RELEASE

My release is always in double track audio italian and Original audio
for select it use VLC or dvd player home
not use wmp

The Dirt (2019)

Quality MIRCrew on HD 720p da 2,0 gb











GENERE: Biografico, Musicale
ANNO: 2019
REGIA: Jeff Tremaine

PAESE: USA
DISTRIBUZIONE: Netflix




Douglas Booth, Iwan Rheon, Colson Baker, Daniel Webber, Pete Davidson, Leven Rambin



The Dirt, il film di Jeff Tremaine, basato sull'omonima autobiografia del gruppo dei Mötley Crüe, racconta, senza censura, di sesso, droga, rock'n roll, successo ed eccessi, e di come i membri della band Nikki Sixx (Douglas Booth), Mick Mars (Iwan Rheon), Tommy Lee (Colson Baker), e Vince Neil (Daniel Webber) trasfomarono i Mötley Crüe in una delle rock band più scandalose e oltraggiose della storia recente della musica.



The story of how Mötley Crüe came to be one of the most notorious rock 'n roll groups in history..





General
Unique ID : 126745176456755660159221249196510669585 (0x5F5A3BAA1CF8BA8ED6301D04D377EB11)
Complete name : The Dirt (2019).720p.h264.ita.eng.sub.ita.eng-MIRcrew\The Dirt (2019).720p.h264.ita.eng.sub.ita.eng-MIRcrew.mkv
Format : Matroska
Format version : Version 4 / Version 2
File size : 2.00 GiB
Duration : 1h 48mn
Overall bit rate : 2 645 Kbps
Movie name : MIRCrew
Encoded date : UTC 2019-04-04T15:12:20Z
Writing application : mkvmerge v26.0.0 ('In The Game') 64-bit
Writing library : Lavf55.12.0

Video
ID : 1
Format : AVC
Format/Info : Advanced Video Codec
Format profile : [email protected]
Format settings, CABAC : Yes
Format settings, ReFrames : 4 frames
Codec ID : V_MPEG4/ISO/AVC
Duration : 1h 48mn
Bit rate : 1 900 Kbps
Width : 1 280 pixels
Height : 528 pixels
Display aspect ratio : 2.40:1
Frame rate : 23.976 fps
Color space : YUV
Chroma subsampling : 4:2:0
Bit depth : 8 bits
Scan type : Progressive
Bits/(Pixel*Frame) : 0.117
Stream size : 1.38 GiB (69%)
Title : MIRCrew
Writing library : x264 core 142 r2479 dd79a61
Encoding settings : cabac=1 / ref=1 / deblock=1:0:0 / analyse=0x1:0x111 / me=hex / subme=2 / psy=1 / psy_rd=1.00:0.00 / mixed_ref=0 / me_range=16 / chroma_me=1 / trellis=0 / 8x8dct=0 / cqm=0 / deadzone=21,11 / fast_pskip=1 / chroma_qp_offset=0 / threads=6 / lookahead_threads=2 / sliced_threads=0 / nr=0 / decimate=1 / interlaced=0 / bluray_compat=0 / constrained_intra=0 / bframes=3 / b_pyramid=2 / b_adapt=1 / b_bias=0 / direct=1 / weightb=1 / open_gop=0 / weightp=1 / keyint=240 / keyint_min=24 / scenecut=40 / intra_refresh=0 / rc_lookahead=10 / rc=abr / mbtree=1 / bitrate=1900 / ratetol=1.0 / qcomp=0.60 / qpmin=0 / qpmax=69 / qpstep=4 / vbv_maxrate=50000 / vbv_bufsize=62500 / nal_hrd=none / filler=0 / ip_ratio=1.40 / aq=1:1.00
Language : Italian
Default : Yes
Forced : No
DURATION : 01:48:00.433000000
NUMBER_OF_FRAMES : 155375
NUMBER_OF_BYTES : 1519192576
_STATISTICS_WRITING_APP : mkvmerge v26.0.0 ('In The Game') 64-bit
_STATISTICS_WRITING_DATE_UTC : 2019-04-04 19:24:39
_STATISTICS_TAGS : BPS DURATION NUMBER_OF_FRAMES NUMBER_OF_BYTES
Color primaries : BT.709-5, BT.1361, IEC 61966-2-4, SMPTE RP177
Transfer characteristics : BT.709-5, BT.1361
Matrix coefficients : BT.709-5, BT.1361, IEC 61966-2-4 709, SMPTE RP177

Audio #1
ID : 2
Format : AC-3
Format/Info : Audio Coding 3
Mode extension : CM (complete main)
Codec ID : A_AC3
Duration : 1h 48mn
Bit rate mode : Constant
Bit rate : 384 Kbps
Channel(s) : 6 channels
Channel positions : Front: L C R, Side: L R, LFE
Sampling rate : 48.0 KHz
Bit depth : 16 bits
Compression mode : Lossy
Delay relative to video : -5ms
Stream size : 297 MiB (15%)
Title : Ita Ac3 5.1
Language : Italian
Default : Yes
Forced : No
DURATION : 01:48:01.408000000
NUMBER_OF_FRAMES : 202544
NUMBER_OF_BYTES : 311107584
_STATISTICS_WRITING_APP : mkvmerge v26.0.0 ('In The Game') 64-bit
_STATISTICS_WRITING_DATE_UTC : 2019-04-04 19:24:39
_STATISTICS_TAGS : BPS DURATION NUMBER_OF_FRAMES NUMBER_OF_BYTES

Audio #2
ID : 3
Format : AC-3
Format/Info : Audio Coding 3
Mode extension : CM (complete main)
Codec ID : A_AC3
Duration : 1h 48mn
Bit rate mode : Constant
Bit rate : 384 Kbps
Channel(s) : 6 channels
Channel positions : Front: L C R, Side: L R, LFE
Sampling rate : 48.0 KHz
Bit depth : 16 bits
Compression mode : Lossy
Delay relative to video : -5ms
Stream size : 297 MiB (15%)
Title : Eng Ac3 5.1
Language : English
Default : No
Forced : No
DURATION : 01:48:00.896000000
NUMBER_OF_FRAMES : 202528
NUMBER_OF_BYTES : 311083008
_STATISTICS_WRITING_APP : mkvmerge v26.0.0 ('In The Game') 64-bit
_STATISTICS_WRITING_DATE_UTC : 2019-04-04 19:24:39
_STATISTICS_TAGS : BPS DURATION NUMBER_OF_FRAMES NUMBER_OF_BYTES

Related Torrents

Tracker name
udp://tracker.coppersurfer.tk:6969/announce
udp://tracker.torrent.eu.org:451/announce
udp://tracker.pirateparty.gr:6969/announce
udp://tracker.opentrackr.org:1337/announce
udp://tracker.leechers-paradise.org:6969/announce
udp://tracker.eddie4.nl:6969/announce
udp://shadowshq.yi.org:6969/announce
udp://shadowshq.eddie4.nl:6969/announce
udp://inferno.demonoid.pw:3391/announce
udp://eddie4.nl:6969/announce
udp://9.rarbg.to:2730/announce
udp://9.rarbg.com:2710/announce
udp://9.rarbg.me:2780/announce
udp://62.138.0.158:6969/announce
udp://151.80.120.114:2710/announce
Torrent hash: 24BBA8B9A1A9C6FD6712F97D2F38914FAE4FB5EE

0 Comment

Login to post comments