The Glorias 2020 1080p WEBRip x264-RARBG


0

0
seeders: 3 leechers: 1 updated: 2 weeks ago
Added 2 weeks ago in Movies - Highres Movies
Downloaded 1 time.
The Glorias 2020 1080p WEBRip x264-RARBG
Plot:
The story of feminist icon Gloria Steinem's itinerant childhood's influence on her life as a writer, activist and organizer for women's rights worldwide.

Available in versions:
WEB-DL 720p 1080p Unknown

Files

The.Glorias.2020.1080p.WEBRip.x264-RARBG (2.8 GB)
RARBG.txt 30 B
RARBG_DO_NOT_MIRROR.exe 99 B
Subs
2_English.srt 157.71 KB
The.Glorias.2020.1080p.WEBRip.x264-RARBG.mp4 2.8 GB

Description

Release: The.Glorias.2020.1080p.WEBRip.x264-RARBG



IMDB: https://www.imdb.com/title/tt7435316

Subtitle: English (soft)

Plot: The story of feminist icon Gloria Steinem's itinerant childhood's influence on her life as a writer, activist and organizer for women's rights worldwide.


General
Complete name : The.Glorias.2020.1080p.WEBRip.x264-RARBG.mp4
Format : MPEG-4
Format profile : Base Media
Codec ID : isom (isom/iso2/avc1/mp41)
File size : 2.80 GiB
Duration : 2 h 27 min
Overall bit rate : 2 728 kb/s
Movie name : The.Glorias.2020.1080p.WEBRip.x264-RARBG
Encoded date : UTC 2020-09-30 09:27:28
Tagged date : UTC 2020-09-30 09:27:28
Writing application : Lavf58.20.100
Comment : The.Glorias.2020.1080p.WEBRip.x264-RARBG

Video
ID : 1
Format : AVC
Format/Info : Advanced Video Codec
Format profile : [email protected]
Format settings : CABAC / 4 Ref Frames
Format settings, CABAC : Yes
Format settings, Reference : 4 frames
Codec ID : avc1
Codec ID/Info : Advanced Video Coding
Duration : 2 h 27 min
Bit rate : 2 500 kb/s
Width : 1 920 pixels
Height : 1 040 pixels
Display aspect ratio : 1.85:1
Frame rate mode : Constant
Frame rate : 23.976 (23976/1000) FPS
Color space : YUV
Chroma subsampling : 4:2:0
Bit depth : 8 bits
Scan type : Progressive
Bits/(Pixel*Frame) : 0.052
Stream size : 2.57 GiB (92%)
Writing library : x264 core 152 r2851M ba24899
Encoding settings : cabac=1 / ref=4 / deblock=1:-1:-1 / analyse=0x3:0x113 / me=umh / subme=9 / psy=1 / psy_rd=1.00:0.15 / mixed_ref=1 / me_range=24 / chroma_me=1 / trellis=2 / 8x8dct=1 / cqm=0 / deadzone=21,11 / fast_pskip=1 / chroma_qp_offset=-3 / threads=16 / lookahead_threads=4 / sliced_threads=0 / nr=0 / decimate=1 / interlaced=0 / bluray_compat=0 / constrained_intra=0 / bframes=3 / b_pyramid=2 / b_adapt=2 / b_bias=0 / direct=3 / weightb=1 / open_gop=0 / weightp=2 / keyint=250 / keyint_min=25 / scenecut=40 / intra_refresh=0 / rc_lookahead=50 / rc=2pass / mbtree=1 / bitrate=2500 / ratetol=1.0 / qcomp=0.60 / qpmin=0 / qpmax=69 / qpstep=4 / cplxblur=20.0 / qblur=0.5 / vbv_maxrate=31250 / vbv_bufsize=31250 / nal_hrd=none / filler=0 / ip_ratio=1.40 / aq=3:1.00
Encoded date : UTC 2020-09-30 09:27:28
Tagged date : UTC 2020-09-30 09:27:28
Codec configuration box : avcC

Audio
ID : 2
Format : AAC LC
Format/Info : Advanced Audio Codec Low Complexity
Codec ID : mp4a-40-2
Duration : 2 h 27 min
Duration_LastFrame : -11 ms
Bit rate mode : Constant
Bit rate : 224 kb/s
Channel(s) : 6 channels
Channel layout : C L R Ls Rs LFE
Sampling rate : 48.0 kHz
Frame rate : 46.875 FPS (1024 SPF)
Compression mode : Lossy
Stream size : 236 MiB (8%)
Language : English
Default : Yes
Alternate group : 1
Encoded date : UTC 2020-09-30 09:27:28
Tagged date : UTC 2020-09-30 09:27:28


SCREENSHOTS:





Related Torrents

Tracker name
http://tracker.tfile.co:80/announce
udp://open.stealth.si:80/announce
udp://torrentclub.tech:6969/announce
udp://tracker.open-internet.nl:6969/announce
udp://ipv4.tracker.harry.lu:80/announce
udp://tracker.torrent.eu.org:451/announce
udp://tracker.justseed.it:1337/announce
udp://9.rarbg.to:2720/announce
udp://9.rarbg.to:2740/announce
udp://tracker.tiny-vps.com:6969/announce
udp://exodus.desync.com:6969/announce
udp://tracker.moeking.me:6969/announce
udp://open.demonii.si:1337/announce
udp://tracker.port443.xyz:6969/announce
udp://denis.stalker.upeer.me:6969/announce
udp://9.rarbg.me:2770/announce
udp://9.rarbg.me:2740/announce
udp://ipv6.tracker.harry.lu:80/announce
udp://tracker.zer0day.to:1337/announce
udp://tracker.mg64.net:6969/announce
udp://eddie4.nl:6969/announce
udp://9.rarbg.me:2730/announce
udp://9.rarbg.to:2770/announce
udp://retracker.lanta-net.ru:2710/announce
udp://tracker.cyberia.is:6969/announce
udp://bt.xxx-tracker.com:2710/announce
udp://9.rarbg.to:2710/announce
udp://9.rarbg.to:2730/announce
udp://tracker.pirateparty.gr:6969/announce
udp://tracker.coppersurfer.tk:6969/announce
udp://tracker.opentrackr.org:1337/announce
udp://tracker.internetwarriors.net:1337/announce
udp://tracker.leechers-paradise.org:6969/announce
udp://9.rarbg.to:2790/announce
http://explodie.org:6969/announce
udp://opentor.org:2710/announce
udp://explodie.org:6969/announce
Torrent hash: 0E6AC812B2C1982915777FA4D719F34FC88069AB

0 Comment

Login to post comments