The Last Samurai 2003 BRRip XviD B4ND1T69


0

0
seeders: 1 leechers: 7 updated: 2 days ago
Added 2 days ago in Movies
Downloaded 3 times.
The Last Samurai 2003 BRRip XviD B4ND1T69
  • Release date: 5 Dec 2003
  • Release year: 2003
  • Runtime: 154 mintues
  • Country: USA, New Zealand, Japan
  • Budget: $140,000,000
Plot:
In the 1870s, Captain Nathan Algren (Tom Cruise), a cynical veteran of the American Civil War, who will work for anyone, is hired by Americans who want lucrative contracts with the Emperor of Japan to train the peasant conscripts for the first standing Imperial Army in modern warfare using firearms. The Imperial Omura (Masato Harada) cabinet's first priority is to repress a rebellion of traditionalist Samurai, hereditary warriors, who remain devoted to the sacred dynasty, but reject the Westernizing policy, and even refuse firearms. Yet, when his ill-prepared superior force sets out too soon, their panic allows the sword-wielding samurai to crush them. Badly wounded, Algren's courageous stand makes the samurai leader Katsumoto (Ken Watanabe) spare his life. Once nursed to health, he learns to know and respect the old Japanese way, and participates as advisor in Katsumoto's failed attempt to save the Bushido tradition, but Omura gets repressive laws enacted. He must now choose to honor...

Available in versions:
BDRip x265 720p 1080p

Files

Downloaded from ProStyleX.txt (1.8 GB)
Downloaded from ProStyleX.txt 102 B
Downloaded from ETTV.txt 102 B
Downloaded from 1337x.txt 102 B
Downloaded from newkatcr.co.txt 102 B
The.Last.Samurai.2003.BRRip.XviD.B4ND1T69.srt 78.1 KB
The.Last.Samurai.2003.BRRip.XviD.B4ND1T69.avi 1.8 GB

Description

The.Last.Samurai.2003.BRRip.XviD.B4ND1T69



Director: Edward Zwick
Writers: John Logan (story), John Logan (screenplay)
Stars: Tom Cruise, Ken Watanabe, Billy Connolly

Plot/Story:
An American military advisor embraces the Samurai culture he was hired to destroy after he is captured in battle.

General
Complete name : The.Last.Samurai.2003.BRRip.XviD.B4ND1T69.avi
Format : AVI
Format/Info : Audio Video Interleave
File size : 1.83 GiB
Duration : 2 h 34 min
Overall bit rate : 1 701 kb/s
Subtitles : Yes...Hardcoded for non-English parts + file included(HI)

Video
ID : 0
Format : MPEG-4 Visual
Format profile : Advanced [email protected]
Format settings, BVOP : 2
Format settings, QPel : No
Format settings, GMC : No warppoints
Format settings, Matrix : Default (H.263)
Codec ID : XVID
Codec ID/Hint : XviD
Duration : 2 h 34 min
Bit rate : 1 559 kb/s
Width : 720 pixels
Height : 304 pixels
Display aspect ratio : 2.35:1
Frame rate : 24.390 FPS
Color space : YUV
Chroma subsampling : 4:2:0
Bit depth : 8 bits
Scan type : Progressive
Compression mode : Lossy
Bits/(Pixel*Frame) : 0.292
Stream size : 1.68 GiB (92%)
Writing library : XviD 64

Audio
ID : 1
Format : MPEG Audio
Format version : Version 1
Format profile : Layer 3
Codec ID : 55
Codec ID/Hint : MP3
Duration : 2 h 34 min
Bit rate mode : Constant
Bit rate : 128 kb/s
Channel(s) : 2 channels
Sampling rate : 48.0 kHz
Compression mode : Lossy
Stream size : 141 MiB (8%)
Alignment : Aligned on interleaves
Interleave, duration : 24 ms (0.59 video frame)

Screenshots:










Please Seed For As Long As Possible
Or At Least 1:1 Ratio...Thanks
Enjoy Peeps

Related Torrents

Tracker name
udp://tracker.coppersurfer.tk:6969/announce
udp://tracker.leechers-paradise.org:6969/announce
udp://9.rarbg.to:2910/announce
udp://tracker.opentrackr.org:1337/announce
udp://open.stealth.si:80/announce
udp://exodus.desync.com:6969/announce
udp://tracker.uw0.xyz:6969/announce
udp://tracker.tiny-vps.com:6969/announce
udp://tracker.zer0day.to:1337/announce
udp://tracker.leechers-paradise.org:6969/announce
udp://coppersurfer.tk:6969/announce
Torrent hash: F0A03CD2FAAEE1EFE0C507900821851EFD6A6B27

0 Comment

Login to post comments