U2 - Boy (1980) (UK PBTHAL LP 24-96) [FLAC] vtwin88cube


0

0
seeders: 36 leechers: 3 updated: 4 days ago
Added 2 weeks ago in Music - Lossless
Downloaded 2 times.
U2 - Boy (1980) (UK PBTHAL LP 24-96) [FLAC] vtwin88cube

Files

00.-U2 - Boy.m3u (904.2 MB)
00.-U2 - Boy.m3u 307 B
01.-I Will Follow.flac 79.5 MB
02.-Twilight.flac 93.4 MB
03.-An Cat Dubh.flac 102.4 MB
04.-Into The Heart.flac 68.1 MB
05.-Out Of Control.flac 92.8 MB
06.-Stories For Boys.flac 67 MB
07.-The Ocean.flac 29.8 MB
08.-A Day Without Me.flac 66.5 MB
09.-Another Time, Another Place.flac 98.5 MB
10.-The Electric Co..flac 103.2 MB
11.-Shadows And Tall Trees.flac 102.8 MB
DR11.txt 1.4 KB
folder.jpg 114.1 KB
lineage.txt 409 B

Description

U2
Boy (1980)
FLAC LOSSLESS 24bit-96kHz
UK PBTHAL Vinyl Rip


allmusic.com...

From the outset, U2 went for the big message -- every song on their debut album Boy sounds huge, with oceans of processed guitars cascading around Bono's impassioned wail. It was an inspired combination of large, stadium-rock beats and post-punk textures. Without the Edge's echoed, ringing guitar, U2 would have sounded like a traditional hard rock band, since the rhythm section and Bono treat each song as an anthem. Of course, that's the charm of Boy: all of its emotions are on the surface, delivered with optimistic, youthful self-belief, yet the unusual, distinctive guitar textures give it an unexpected tension that makes it an exhilarating debut. The songs may occasionally show some weakness -- the driving "I Will Follow," the dark "An Cat Dubh," and the shimmering "The Ocean" stand out among the sonic textures -- yet the band's musical and lyrical vision keep Boy compelling until the finish.


foobar2000 1.4.3 / Dynamic Range Meter 1.1.1
log date: 2021-01-02 08:06:34

--------------------------------------------------------------------------------
Analyzed: U2 / Boy
--------------------------------------------------------------------------------

DR Peak RMS Duration Track
--------------------------------------------------------------------------------
DR11 -0.70 dB -13.41 dB 3:40 01-I Will Follow
DR10 -0.83 dB -13.82 dB 4:22 02-Twilight
DR11 -1.67 dB -15.30 dB 4:46 03-An Cat Dubh
DR12 -1.22 dB -17.38 dB 3:27 04-Into The Heart
DR11 -1.15 dB -14.02 dB 4:14 05-Out Of Control
DR11 -1.78 dB -15.43 dB 3:04 06-Stories For Boys
DR10 -6.97 dB -20.38 dB 1:35 07-The Ocean
DR10 -2.02 dB -15.35 dB 3:13 08-A Day Without Me
DR11 -1.72 dB -14.54 dB 4:33 09-Another Time, Another Place
DR11 -2.16 dB -15.24 dB 4:48 10-The Electric Co.
DR11 -3.59 dB -18.73 dB 5:16 11-Shadows And Tall Trees

Number of tracks: 11
Official DR value: DR11

Samplerate: 96000 Hz
Channels: 2
Bits per sample: 24
Bitrate: 2731 kbps
Codec: FLAC





Support the artists...
buy it if you like it!

Thanks for Seeding!
Cheers! ;)

Related Torrents

Tracker name
udp://tracker.openbittorrent.com:80/announce
udp://exodus.desync.com:6969/announce
udp://denis.stalker.upeer.me:6969/announce
udp://tracker.torrent.eu.org:451/announce
udp://tracker.coppersurfer.tk:6969/announce
udp://tracker.internetwarriors.net:1337/announce
udp://explodie.org:6969/announce
udp://tracker.leechers-paradise.org:6969/announce
http://tracker.opentrackr.org:1337/announce
udp://tracker.zer0day.to:1337/announce
udp://tracker.leechers-paradise.org:6969/announce
udp://coppersurfer.tk:6969/announce
Torrent hash: A1FB2CAB302BC6929A65415EF460A144CEB2AD1F

0 Comment

Login to post comments