Whiplash (2014) UHDRip 2160p HEVC HDR ITA AC3 ENG TrueHD Atmos 7 1 PirateMKV mkv


0

0
seeders: 2 leechers: 9 updated: 3 days ago
Added 3 days ago in Movies - UltraHD
Downloaded 2 times.
Whiplash (2014) UHDRip 2160p HEVC HDR ITA AC3 ENG TrueHD Atmos 7 1 PirateMKV mkv
Plot:
A young and talented drummer attending a prestigious music academy finds himself under the wing of the most respected professor at the school; one who does not hold back on abuse towards his students. The two form an odd relationship as the student wants to achieve greatness, and the professor pushes him.

Available in versions:
x265 720p 2160p

Files

Whiplash (2014) UHDRip 2160p HEVC HDR ITA AC3 ENG TrueHD Atmos 7.1 PirateMKV.mkv (17.3 GB)
Whiplash (2014) UHDRip 2160p HEVC HDR ITA AC3 ENG TrueHD Atmos 7.1 PirateMKV.mkv 17.3 GB

Description



DATI - TRAMA

Titolo: Whiplash
Nazione: USA
Anno: 2014
Genere: Drama, Music
Durata: 106 min
Regia: Damien Chazelle
Voti: IMDb (8.5/10), Rotten Tomatoes (94%), Metacritic (88/100)
Cast: Miles Teller, J.K. Simmons, Paul Reiser, Melissa Benoist


Andrew, studente di primo anno al college, è disposto a tutto pur di diventare un famoso batterista jazz. I suoi sforzi e il suo impegno sono messi però a dura prova dagli estremi metodi di insegnamento dell'eccentrico professor Fletcher. Condotto quasi sull'orlo della follia, Andrew dovrà imparare a credere in se stesso e aver fede nella musica per far scintillare il talento nel quale Fletcher ripone fiducia.

IMMAGINI




REPORT

General
Unique ID : 228801172147377353254455192193126840318 (0xAC2180BC69B65560498BD9D3B0B337FE)
Complete name : D:\Downloads\Old\Whiplash UHD\Whiplash (2014) UHDRip 2160p HEVC HDR ITA AC3 ENG TrueHD Atmos 7.1 PirateMKV.mkv
Format : Matroska
Format version : Version 4
File size : 17.3 GiB
Duration : 1 h 46 min
Overall bit rate mode : Variable
Overall bit rate : 23.2 Mb/s
Movie name : Whiplash (2014) - PirateMKV
Encoded date : UTC 2020-11-03 16:27:33
Writing application : mkvmerge v51.0.0 ('I Wish') 64-bit
Writing library : libebml v1.4.0 + libmatroska v1.6.2 / Lavf58.59.100
Copyright : Encoded by PirateMKV

Video
ID : 1
ID in the original source medium : 4113 (0x1011)
Format : HEVC
Format/Info : High Efficiency Video Coding
Format profile : Main [email protected]@High
HDR format : SMPTE ST 2086, HDR10 compatible
Codec ID : V_MPEGH/ISO/HEVC
Duration : 1 h 46 min
Bit rate : 19.4 Mb/s
Width : 3 840 pixels
Height : 1 600 pixels
Display aspect ratio : 2.40:1
Frame rate mode : Constant
Frame rate : 23.976 (24000/1001) FPS
Color space : YUV
Chroma subsampling : 4:2:0 (Type 2)
Bit depth : 10 bits
Bits/(Pixel*Frame) : 0.132
Stream size : 14.5 GiB (84%)
Writing library : x265 3.4+26-ga82c6c7a7:[Windows][GCC 10.2.0][64 bit] 10bit
Encoding settings : cpuid=1111039 / frame-threads=3 / numa-pools=8 / wpp / no-pmode / no-pme / no-psnr / no-ssim / log-level=2 / input-csp=1 / input-res=3840x1600 / interlace=0 / total-frames=0 / level-idc=51 / high-tier=1 / uhd-bd=0 / ref=5 / no-allow-non-conformance / repeat-headers / annexb / aud / hrd / info / hash=0 / no-temporal-layers / no-open-gop / min-keyint=1 / keyint=24 / gop-lookahead=0 / bframes=8 / b-adapt=2 / b-pyramid / bframe-bias=0 / rc-lookahead=40 / lookahead-slices=0 / scenecut=40 / hist-scenecut=0 / radl=0 / no-splice / no-intra-refresh / ctu=64 / min-cu-size=8 / no-rect / no-amp / max-tu-size=32 / tu-inter-depth=4 / tu-intra-depth=4 / limit-tu=0 / rdoq-level=0 / dynamic-rd=0.00 / no-ssim-rd / signhide / no-tskip / nr-intra=0 / nr-inter=0 / no-constrained-intra / no-strong-intra-smoothing / max-merge=3 / limit-refs=3 / limit-modes / me=2 / subme=5 / merange=57 / temporal-mvp / no-frame-dup / no-hme / weightp / weightb / no-analyze-src-pics / deblock=-3:-3 / no-sao / no-sao-non-deblock / rd=4 / selective-sao=0 / no-early-skip / rskip / fast-intra / no-tskip-fast / no-cu-lossless / b-intra / no-splitrd-skip / rdpenalty=0 / psy-rd=2.00 / psy-rdoq=0.00 / no-rd-refine / no-lossless / cbqpoffs=-3 / crqpoffs=-3 / rc=crf / crf=17.5 / qcomp=0.70 / qpstep=4 / stats-write=0 / stats-read=0 / vbv-maxrate=160000 / vbv-bufsize=160000 / vbv-init=0.9 / min-vbv-fullness=50.0 / max-vbv-fullness=80.0 / crf-max=0.0 / crf-min=0.0 / ipratio=1.40 / pbratio=1.30 / aq-mode=3 / aq-strength=0.70 / no-cutree / zone-count=0 / no-strict-cbr / qg-size=32 / no-rc-grain / qpmax=69 / qpmin=0 / no-const-vbv / sar=1 / overscan=0 / videoformat=5 / range=0 / colorprim=9 / transfer=16 / colormatrix=9 / chromaloc=1 / chromaloc-top=2 / chromaloc-bottom=2 / display-window=0 / master-display=G(13250,34500)B(7500,3000)R(34000,16000)WP(15635,16450)L(40000000,50) / cll=1000,82 / min-luma=0 / max-luma=1023 / log2-max-poc-lsb=8 / vui-timing-info / vui-hrd-info / slices=1 / no-opt-qp-pps / no-opt-ref-list-length-pps / no-multi-pass-opt-rps / scenecut-bias=0.05 / hist-threshold=0.03 / no-opt-cu-delta-qp / no-aq-motion / hdr10 / hdr10-opt / no-dhdr10-opt / no-idr-recovery-sei / analysis-reuse-level=0 / analysis-save-reuse-level=0 / analysis-load-reuse-level=0 / scale-factor=0 / refine-intra=0 / refine-inter=0 / refine-mv=1 / refine-ctu-distortion=0 / no-limit-sao / ctu-info=0 / no-lowpass-dct / refine-analysis-type=0 / copy-pic=1 / max-ausize-factor=1.0 / no-dynamic-refine / no-single-sei / no-hevc-aq / no-svt / no-field / qp-adaptation-range=1.00 / no-scenecut-aware-qpconformance-window-offsets / right=0 / bottom=0 / decoder-max-rate=0 / no-vbv-live-multi-pass
Language : English
Default : Yes
Forced : No
Color range : Limited
Color primaries : BT.2020
Transfer characteristics : PQ
Matrix coefficients : BT.2020 non-constant
Mastering display color primaries : Display P3
Mastering display luminance : min: 0.0050 cd/m2, max: 4000 cd/m2
Maximum Content Light Level : 1000 cd/m2
Maximum Frame-Average Light Level : 82 cd/m2
Original source medium : Blu-ray

Audio #1
ID : 2
Format : AC-3
Format/Info : Audio Coding 3
Commercial name : Dolby Digital
Codec ID : A_AC3
Duration : 1 h 46 min
Bit rate mode : Constant
Bit rate : 640 kb/s
Channel(s) : 6 channels
Channel layout : L R C LFE Ls Rs
Sampling rate : 48.0 kHz
Frame rate : 31.250 FPS (1536 SPF)
Compression mode : Lossy
Stream size : 489 MiB (3%)
Title : AC3 5.1
Language : Italian
Service kind : Complete Main
Default : Yes
Forced : No

Audio #2
ID : 3
Format : MLP FBA 16-ch
Format/Info : Meridian Lossless Packing FBA with 16-channel presentation
Commercial name : Dolby TrueHD with Dolby Atmos
Codec ID : A_TRUEHD
Duration : 1 h 46 min
Bit rate mode : Variable
Bit rate : 3 080 kb/s
Maximum bit rate : 5 688 kb/s
Channel(s) : 8 channels
Channel layout : L R C LFE Ls Rs Lb Rb
Sampling rate : 48.0 kHz
Frame rate : 1 200.000 FPS (40 SPF)
Compression mode : Lossless
Stream size : 2.30 GiB (13%)
Title : TrueHD Atmos 7.1
Language : English
Default : No
Forced : No
Number of dynamic objects : 11
Bed channel count : 1 channel
Bed channel configuration : LFE

Text #1
ID : 4
Format : UTF-8
Codec ID : S_TEXT/UTF8
Codec ID/Info : UTF-8 Plain Text
Duration : 1 h 42 min
Bit rate : 0 b/s
Count of elements : 5
Stream size : 151 Bytes (0%)
Title : Forced
Language : Italian
Default : Yes
Forced : Yes

Text #2
ID : 5
Format : UTF-8
Codec ID : S_TEXT/UTF8
Codec ID/Info : UTF-8 Plain Text
Duration : 1 h 44 min
Bit rate : 43 b/s
Count of elements : 913
Stream size : 33.4 KiB (0%)
Title : Normal
Language : Italian
Default : No
Forced : No

Text #3
ID : 6
Format : UTF-8
Codec ID : S_TEXT/UTF8
Codec ID/Info : UTF-8 Plain Text
Duration : 1 h 35 min
Bit rate : 44 b/s
Count of elements : 897
Stream size : 31.2 KiB (0%)
Title : Normal
Language : English
Default : No
Forced : No

Text #4
ID : 7
Format : UTF-8
Codec ID : S_TEXT/UTF8
Codec ID/Info : UTF-8 Plain Text
Duration : 1 h 44 min
Bit rate : 44 b/s
Count of elements : 1027
Stream size : 33.9 KiB (0%)
Title : SDH
Language : English
Default : No
Forced : No

Menu
00:00:00.000 : en:Chapter 01
00:07:03.923 : en:Chapter 02
00:14:46.552 : en:Chapter 03
00:24:38.477 : en:Chapter 04
00:30:18.191 : en:Chapter 05
00:35:55.945 : en:Chapter 06
00:43:43.245 : en:Chapter 07
00:47:07.407 : en:Chapter 08
00:53:24.409 : en:Chapter 09
01:02:49.599 : en:Chapter 10
01:10:42.321 : en:Chapter 11
01:14:16.034 : en:Chapter 12
01:18:00.884 : en:Chapter 13
01:23:18.076 : en:Chapter 14
01:25:40.009 : en:Chapter 15
01:32:08.356 : en:Chapter 16

GOOD DOWNLOAD

Related Torrents

Tracker name
udp://tracker.coppersurfer.tk:6969/announce
udp://tracker.opentrackr.org:1337/announce
udp://tracker.leechers-paradise.org:6969/announce
udp://tracker.zer0day.to:1337/announce
udp://eddie4.nl:6969/announce
udp://9.rarbg.me:2790/announce
udp://9.rarbg.to:2730/announce
udp://9.rarbg.com:2710/announce
udp://tracker.pirateparty.gr:6969/announce
udp://p4p.arenabg.com:1337/announceudp://tracker.coppersurfer.tk:6969/announce
udp://p4p.arenabg.com:1337/announce
udp://tracker.zer0day.to:1337/announce
udp://tracker.leechers-paradise.org:6969/announce
udp://coppersurfer.tk:6969/announce
Torrent hash: F48EBBA59642B80CC7CBC2A2CCFB821675CBD45C

0 Comment

Login to post comments